Welcome Guest ( Log In | Register )

> И неформату есть предел.

Рэп/хип-хоп/шансон/поп удаляются. Для них есть свои порталы.

 
Reply to this topicStart new topic
> Comeback Kid - Outsider (2017), Melodic Hardcore
post Sep 2 2017, 20:15:09
Post #1

Все люди - черви.
**********
Group: Металариец
Posts: 1,019
Releases: 118
From: Пхёнъян, Северная Корея
On Forums: 5 years 5 months
Thanks: 3671 time(s)
North Korea


(IMG:https://metalarea.org/images/audiocovers/2017_Sep/acov_tid294001_thumb.jpg)

*Artist: Comeback Kid
*Album: Outsider
*Year: 2017
*Genre: Melodic Hardcore
*Country: Canada (IMG:https://metalarea.org/forum/style_images/flags/Canada.png)
*Format: mp3@CBR320kbps
*Size: 84MB

Tracklist:
01. Outsider
02. Surrender Control
03. Absolute (feat. Devin Townsend)
04. Hell of a Scene
05. Somewhere, Somehow
06. Consumed the Vision (feat. Chris Cresswell)
07. I'll Be That
08. Outrage (Fresh Face, Stale Cause)
09. Blindspot
10. Livid, I'm Prime
11. Recover
12. Throw That Stone
13. Moment in Time (feat. Northcote)
******************************
Total playing time: 36:26

(IMG:https://metalarea.org/images/youtube.png)

Technical info
(IMG:https://metalarea.org/images/spectrogram/2017_Sep/504626d66c8760e10c15dc8f26301d1a.png)
Input File: 02 Surrender Control.mp3
Channels : 2
Sample Rate : 44100
Precision : 16-bit
Duration : 00:03:09.91 = 8374987 samples = 14243.2 CDDA sectors
File Size : 7.65M
Bit Rate : 322k
Sample Encoding: MPEG audio (layer I, II or III)
Comments :
Title=Surrender Control
Artist=Comeback Kid
Album=Outsider
Tracknumber=2/13
Year=2017
Genre=Hardcore
Discnumber=1/1



Register


Go to the top of the page
  Insert nick Quick quote
+Quote Post

Reply to this topicStart new topic
1 User(s) are reading this topic (1 Guests and 0 Anonymous Users)
0 Members:

 



- Lo-Fi Version Support form
Copyrights and abuse reports form
Time is now: 23rd June 2018 - 11:24:18