Welcome Guest ( Log In | Register )

> И неформату есть предел.

Рэп/хип-хоп/шансон/поп удаляются. Для них есть свои порталы.

 
Reply to this topicStart new topic
> Irdorath Folk Band - Ad Astra (2012), Folk
post Sep 3 2017, 20:26:25
Post #1

Пять Литров
*****
Group: Металариец
Posts: 425
Releases: 23
On Forums: 4 years 8 months
Thanks: 794 time(s)
Unknown


(IMG:http://metalarea.org/images/audiocovers/2017_Sep/acov_tid294047_thumb.jpg)

*Artist: Irdorath Folk Band
*Album: Ad Astra
*Year: 2012
*Genre: Folk
*Country: Belarus (IMG:http://metalarea.org/forum/style_images/flags/Belarus.png)
*Format: mp3@CBR320kbps
*Size: 95MB

Tracklist:
01. Rondo 3:59
02. Luptă, Nu Te Lăsa (Part 1) 1:13
03. Skudrinka – Albanischer (traditional Albanian & Macedonian dance) 3:50
04. Luptă, Nu Te Lăsa (Part 2) 0:50
05. Bard’s Tale 2:20
06. Saderalladon (France 13th century) 4:15
07. Luptă, Nu Te Lăsa (Part 3) 0:55
08. Tourdion (France 15th century) 4:23
09. Luptă, Nu Te Lăsa (Part 4) 1:03
10. Ketri (Hungarian Gypsy song) 5:11
11. Luptă, Nu Te Lăsa (Part 5) 0:40
12. Cypridis In Voto (Text – Carmina Burana. 59) 6:50
13. Ad Astra 3:30
14. Verabey (traditional Belarusian dance) [bonustrack] 2:26
******************************
Total playing time: 41:25

Technical info
(IMG:http://metalarea.org/images/spectrogram/2017_Sep/e558c58dd5377da9b6aa65f388201aca.png)
Input File: 01 - Irdorath - Rondo.mp3
Channels : 2
Sample Rate : 44100
Precision : 16-bit
Duration : 00:03:59.30 = 10553306 samples = 17947.8 CDDA sectors
File Size : 9.57M
Bit Rate : 320k
Sample Encoding: MPEG audio (layer I, II or III)
Comments :
Title=Rondo
Artist=Irdorath
Album=Ad Astra
Tracknumber=01
Year=2012
Genre=Folk



Register


Thanks:
(1) gwar,
Go to the top of the page
  Insert nick Quick quote
+Quote Post

Reply to this topicStart new topic
1 User(s) are reading this topic (1 Guests and 0 Anonymous Users)
0 Members:

 



- Lo-Fi Version Support form
Copyrights and abuse reports form
Time is now: 23rd June 2018 - 11:22:36