Welcome Guest ( Log In | Register )

> Elegiac - Black Clouds Of War (2017), Black Metal (D8)
post Sep 4 2017, 17:42:54
Post #1

Мегаманьяк
***********
Group: Металариец
Posts: 1,725
Releases: 1365
From: Prešov
On Forums: 5 years 3 months
Thanks: 32892 time(s)
Slovakia


(IMG:http://metalarea.org/images/audiocovers/2017_Sep/acov_tid294078_thumb.jpg)

*Artist: Elegiac
*Album: Black Clouds Of War
*Year: 2017
*Genre: Black Metal
*Country: United States (IMG:http://metalarea.org/forum/style_images/flags/United%20States.png)
*Format: mp3@CBR320kbps
*Size: 143MB

Tracklist:
1. Black Clouds of War 09:14
2. Cosmic Holocaust 06:10
3. Beyond the Physical Realm 06:24
4. Transcendence (Interlude) 01:36
5. Heathen Supremacy 07:30
6. The Hanging Head of Death 07:44
7. Symbols of Power 06:16
8. Ashwind (Interlude) 04:44
9. Creatures of Night 04:42
10. Visions 06:56
******************************
Total playing time: 1:01:16

Extended info
Hatework


Technical info
(IMG:http://metalarea.org/images/spectrogram/2017_Sep/f33c28625b92026a62f0f255f25f036e.png)
Input File: 05. Heathen Supremacy.mp3
Channels : 2
Sample Rate : 44100
Precision : 16-bit
Duration : 00:07:30.11 = 19849631 samples = 33757.9 CDDA sectors
File Size : 18.1M
Bit Rate : 322k
Sample Encoding: MPEG audio (layer I, II or III)
Comments :
Title=Heathen Supremacy
Artist=Elegiac
Album=Black Clouds of War
Tracknumber=05/10
Year=2017
Genre=Black Metal



Register


Go to the top of the page
  Insert nick Quick quote
+Quote Post
 
Start new topic
Replies (1 - 1)
post Sep 4 2017, 18:31:04
Post #2

Morbid Angel
**************
Group: Металариец
Posts: 4,166
Releases: 0
From: Литва г.Клайпеда
On Forums: 12 years 4 months
Thanks: 1773 time(s)
Lithuania




Go to the top of the page
  Insert nick Quick quote
+Quote Post

Reply to this topicStart new topic
2 User(s) are reading this topic (2 Guests and 0 Anonymous Users)
0 Members:

 



- Lo-Fi Version Support form
Copyrights and abuse reports form
Time is now: 23rd July 2019 - 21:07:58