Welcome Guest ( Log In | Register )

> И неформату есть предел.

Рэп/хип-хоп/шансон/поп удаляются. Для них есть свои порталы.

> Burzum - Thulean Mysteries [single] (2015), Dungeon Synth (D)
post Sep 6 2017, 19:08:44
Post #1

Правь статус, ####!111
**************
Group: Металариец
Posts: 31,945
Releases: 486
On Forums: 9 years 2 weeks
Thanks: 24525 time(s)
Russian Federation


(IMG:http://metalarea.org/images/audiocovers/2017_Sep/acov_tid294192_thumb.jpg)

*Artist: Burzum
*Album: Thulean Mysteries [single]
*Year: 2015
*Genre: Dungeon Synth
*Country: Norway (IMG:http://metalarea.org/forum/style_images/flags/Norway.png)
*Format: mp3@CBR320kbps
*Size: 11MB

Tracklist:
1.Thulean Mysteries 04:21
******************************
Total playing time: 4:21

Technical info
(IMG:http://metalarea.org/images/spectrogram/2017_Sep/55db922d6fdbcbab9d9d254ed32ab6b7.png)
Input File: 01 Thulean Mysteries.mp3
Channels : 2
Sample Rate : 44100
Precision : 16-bit
Duration : 00:04:21.70 = 11540794 samples = 19627.2 CDDA sectors
File Size : 10.8M
Bit Rate : 329k
Sample Encoding: MPEG audio (layer I, II or III)
Comments :
Title=Thulean Mysteries
Artist=Burzum
Album=Thulean Mysteries
Tracknumber=1/1
Year=2015
Genre=Ambient
Discnumber=1/1



Register


Go to the top of the page
  Insert nick Quick quote
+Quote Post
 
Start new topic
Replies (1 - 6)
post Sep 7 2017, 10:30:35
Post #2

Leegte
**********
Group: Металариец
Posts: 1,436
Releases: 14
From: Kiovia
On Forums: 6 years 1 month
Thanks: 2014 time(s)
Ukraine


То чувство, когда обложка лучше трека.
Go to the top of the page
  Insert nick Quick quote
+Quote Post
post Sep 7 2017, 10:58:13
Post #3

Правь статус, ####!111
**************
Group: Металариец
Posts: 31,945
Releases: 486
On Forums: 9 years 2 weeks
Thanks: 24525 time(s)
Russian Federation


ЦИТАТА(Kwaad @ Sep 7 2017, 13:30:35) *
обложка лучше трека.


С 2011 по н.в.
Go to the top of the page
  Insert nick Quick quote
+Quote Post
post Sep 7 2017, 11:15:41
Post #4

Правь статус, ####!111
**************
Group: Металариец
Posts: 31,945
Releases: 486
On Forums: 9 years 2 weeks
Thanks: 24525 time(s)
Russian Federation


Register


Thanks:
(1) Raw1488,
Go to the top of the page
  Insert nick Quick quote
+Quote Post
post Sep 7 2017, 19:25:58
Post #5

Правь статус, ####!111
**************
Group: Металариец
Posts: 31,945
Releases: 486
On Forums: 9 years 2 weeks
Thanks: 24525 time(s)
Russian Federation


Песенка надо признать ниче такая. У него еще 2 сингла вышла в период 2015 год.
Go to the top of the page
  Insert nick Quick quote
+Quote Post
post Sep 9 2017, 18:31:39
Post #6

0,5 минералки и шоколадка
**************
Group: Металариец
Posts: 2,788
Releases: 119
From: Karelia/SPB
On Forums: 9 years 1 month
Thanks: 3719 time(s)
NATO


что-то давно не слышно вестей от Варга. Живой ли?
Помню какой ажиотаж был от его альбома, когда от откинулся. Ну и альбом тоже норм тот
Go to the top of the page
  Insert nick Quick quote
+Quote Post
post Sep 9 2017, 19:16:54
Post #7

Group: Дух
Posts: 7
Releases: 0
On Forums: 9 years 2 months
Thanks: 3 time(s)
Russian Federation


Он теперь видеоблогер...
Go to the top of the page
  Insert nick Quick quote
+Quote Post

Reply to this topicStart new topic
1 User(s) are reading this topic (1 Guests and 0 Anonymous Users)
0 Members:

 



- Lo-Fi Version Support form
Copyrights and abuse reports form
Time is now: 18th June 2018 - 06:37:58