Welcome Guest ( Log In | Register )

> Animosity - Animosity (1997), Thrash/Groove Metal (D)
post Sep 6 2017, 21:50:55
Post #1

People = Shit
**************
Group: Металариец
Posts: 5,168
Releases: 414
From: Беларусь, Минск
On Forums: 5 years 5 months
Thanks: 5604 time(s)
Belarus


(IMG:https://metalarea.org/images/audiocovers/2017_Sep/acov_tid294197_thumb.jpg)

*Artist: Animosity
*Album: Animosity
*Year: 1997
*Genre: Thrash/Groove Metal
*Country: Canada (IMG:https://metalarea.org/forum/style_images/flags/Canada.png)
*Format: mp3@CBR320kbps
*Size: 93MB

Tracklist:
01. In My Way 01:44
02. Fatal Addiction 03:48
03. Guilty As I 02:40
04. Won't 03:07
05. Beaten Path 04:22
06. In Other Words 02:43
07. With Doubt 02:50
08. What I've Become 04:52
09. Worlds Apart 03:44
10. Crossing The Line 03:03
11. Understood 11:40
******************************
Total playing time: 44:33

Technical info
(IMG:https://metalarea.org/images/spectrogram/2017_Sep/0459d0d5c8b2d015dbd09fd93db81307.png)
Input File: 01 - In My Way.mp3
Channels : 2
Sample Rate : 44100
Precision : 16-bit
Duration : 00:01:44.76 = 4619916 samples = 7857 CDDA sectors
File Size : 4.19M
Bit Rate : 320k
Sample Encoding: MPEG audio (layer I, II or III)



Register


Вернуться к началу страницы
  Insert nick Quick quote
+Цитировать сообщение
 
Создать новую тему
Replies (1 - 1)
post Sep 7 2017, 06:50:13
Post #2

People = Shit
**************
Group: Металариец
Posts: 5,168
Releases: 414
From: Беларусь, Минск
On Forums: 5 years 5 months
Thanks: 5604 time(s)
Belarus


Register


This post has been edited by Fess: Sep 7 2017, 10:40:11


Вернуться к началу страницы
  Insert nick Quick quote
+Цитировать сообщение

ОтветитьСоздать новую тему
1 User(s) are reading this topic (1 Guests and 0 Anonymous Users)
0 Members:

 



- Lo-Fi Version Support form
Copyrights and abuse reports form
Time is now: 20th February 2018 - 01:01:35