Welcome Guest ( Log In | Register )

> Abhorer & Brain Dead - Zygotical Ecstacy [split] (2013), Black/Death/Thrash Metal | Death/Thrash Metal (D)(D10)
post Sep 7 2017, 09:11:14
Post #1
BAN
Banned till
Jul 5 2291, 15:15:40



(IMG:https://metalarea.org/images/audiocovers/2017_Sep/acov_tid294216_thumb.jpg)

*Artist: Abhorer & Brain Dead
*Album: Zygotical Ecstacy [split]
*Year: 2013
*Genre: Black/Death/Thrash Metal | Death/Thrash Metal
*Country: Singapore (IMG:https://metalarea.org/forum/style_images/flags/Singapore.png) | Malaysia (IMG:https://metalarea.org/forum/style_images/flags/Malaysia.png)
*Format: mp3@CBR320kbps
*Size: 182MB

Tracklist:
Abhorer :
1. Invoking Nana Sahib, Satyrical Goat of Mendes
2.Concubinal Celibatic Myrmidonian Whores
3.Abandonment of Chastity
4.Phlegethonic Sybaritical Demimonde
5. Zygotical Sabbatory Anabapt
6.Empyrean Sabaoth of Azarak
16.Repudiated Faith
17.Rumpus of the Undead
Brain Dead :
7.Unholy Sins
8.Twisted Souls
9.Repulse to Destruct
10.From the Ecstacy
11. Eternal War
12.The 7th Wind
13. Spirit of Heloisa
14. Eternal War
15.Satanism
******************************
Total playing time: 1:19:42

Technical info
(IMG:https://metalarea.org/images/spectrogram/2017_Sep/715c472b3c27c4102d388ae959fe0cac.png)
Input File: 01 Abhorer - Invoking Nana Sahib, Satyrical Goat of Mendes.mp3
Channels : 2
Sample Rate : 44100
Precision : 16-bit
Duration : 00:01:03.00 = 2778300 samples = 4725 CDDA sectors
File Size : 2.55M
Bit Rate : 324k
Sample Encoding: MPEG audio (layer I, II or III)
Comments :
Title=Abhorer - Invoking Nana Sahib, Satyrical Goat of Mendes
Artist=Unknown Artist
Album=Zygotical Ecstacy
Tracknumber=1
Year=2013
Genre=Black/Death/Thrash Metal
Discnumber=1/1



Register


Go to the top of the page
  Insert nick Quick quote
+Quote Post
 
Start new topic
Replies (1 - 2)
post Sep 8 2017, 13:32:55
Post #2

Satan bless you!
**************
Group: Металариец
Posts: 3,140
Releases: 63
From: Москва
On Forums: 9 years 11 months
Thanks: 2707 time(s)
Russian Federation


Не мог бы перезалить? При разархивации постоянно выдает несколько ошибок(скачивал несколько раз, если что))
Go to the top of the page
  Insert nick Quick quote
+Quote Post
Blake
post Sep 8 2017, 17:19:00
Post #3

Guests team






Все нормально распаковывается, потрековый разрез рипа немного некорректен. Но "даренному коню в зубы не смотрят, даже если он троянский"
sampo ru - это дешовая шлю...мм. Ты бы линки на нормальные файлообменники скинул ulver73 - без расчета, что в тебе будут нуждаться. Отзеркаль по человечески, смотреть тошно. ты больше потерял, чем обрел.
Go to the top of the page
  Insert nick Quick quote
+Quote Post

Reply to this topicStart new topic
1 User(s) are reading this topic (1 Guests and 0 Anonymous Users)
0 Members:

 



- Lo-Fi Version Support form
Copyrights and abuse reports form
Time is now: 18th June 2018 - 06:42:22