Welcome Guest ( Log In | Register )

> Atel - Seeking Morbid Silence (2016), Black Metal
post Sep 7 2017, 09:38:16
Post #1
BAN
Banned till
Jul 5 2291, 15:15:40



(IMG:https://metalarea.org/images/audiocovers/2017_Sep/acov_tid294218_thumb.jpg)

*Artist: Atel
*Album: Seeking Morbid Silence
*Year: 2016
*Genre: Black Metal
*Country: United States (IMG:https://metalarea.org/forum/style_images/flags/United%20States.png)
*Format: mp3@CBR320kbps
*Size: 80MB

Tracklist:
1. Anthology of Nothing 05:59
2. Destroyer of Thoughts 08:32
3. Peter Closed the Gates as God Fell 07:45
4. Defeating Melancholy with Suicide 06:10
5. Untitled 06:02
******************************
Total playing time: 34:28

Technical info
(IMG:https://metalarea.org/images/spectrogram/2017_Sep/5ea007d1ef199fd2aa426233043af76e.png)
Input File: 01 Anthology of Nothing.mp3
Channels : 2
Sample Rate : 44100
Precision : 16-bit
Duration : 00:05:59.74 = 15864666 samples = 26980.7 CDDA sectors
File Size : 14.7M
Bit Rate : 327k
Sample Encoding: MPEG audio (layer I, II or III)
Comments :
Title=Anthology Of Nothing
Artist=Atel
Album=Seeking Morbid Silence
Tracknumber=1/5
Year=2016
Genre=Black Metal



Register


Вернуться к началу страницы
  Insert nick Quick quote
+Цитировать сообщение
 
Создать новую тему
Replies (1 - 1)
post Sep 26 2017, 03:35:29
Post #2

Правь статус, ####!111
**************
Group: Металариец
Posts: 2,706
Releases: 18
From: Eternal darkness
On Forums: 10 years 4 months
Thanks: 6183 time(s)
Russian Federation


Register


Thanks:
Вернуться к началу страницы
  Insert nick Quick quote
+Цитировать сообщение

ОтветитьСоздать новую тему
1 User(s) are reading this topic (1 Guests and 0 Anonymous Users)
0 Members:

 



- Lo-Fi Version Support form
Copyrights and abuse reports form
Time is now: 20th February 2018 - 00:58:15