Welcome Guest ( Log In | Register )

> Trail Of Blood - Judas Evangelion (2017), Thrash Metal
post Sep 7 2017, 18:42:25
Post #1

Правь статус, ####!111
**************
Group: Металариец
Posts: 13,329
Releases: 9406
From: Г.Харьков
On Forums: 6 years 1 month
Thanks: 153489 time(s)
Unknown


(IMG:http://metalarea.org/images/audiocovers/2017_Sep/acov_tid294260_thumb.jpg)

*Artist: Trail Of Blood
*Album: Judas Evangelion
*Year: 2017
*Genre: Thrash Metal
*Country: Germany (IMG:http://metalarea.org/forum/style_images/flags/Germany.png)
*Format: mp3@CBR320kbps
*Size: 86MB

Tracklist:
01. Create and Deny
02. Burn Salem Burn
03. Ov Lambs and Snakes
04. Evangelion
05. Cult
06. The Power and the Glory Forever Amen
07. The Pessimist
08. Bloodstorm Reprise
09. To Hell with His Kingdom
10. Shame of Satori
11. Nails
******************************
Total playing time: 40:37



Extended info


Technical info
(IMG:http://metalarea.org/images/spectrogram/2017_Sep/7aa9d81a169311260cb19dfff292d5a2.png)
Input File: 02 Burn Salem Burn.mp3
Channels : 2
Sample Rate : 44100
Precision : 16-bit
Duration : 00:03:27.12 = 9134036 samples = 15534.1 CDDA sectors
File Size : 8.40M
Bit Rate : 324k
Sample Encoding: MPEG audio (layer I, II or III)
Comments :
Title=Burn Salem Burn
Artist=Trail of Blood
Album=Judas Evangelion
Tracknumber=2/11
Year=2017
Genre=9
Discnumber=1/1



Register


Go to the top of the page
  Insert nick Quick quote
+Quote Post
 
Start new topic
Replies (1 - 2)
post Sep 7 2017, 19:10:36
Post #2

Правь статус, ####!111
**************
Group: Металариец
Posts: 13,329
Releases: 9406
From: Г.Харьков
On Forums: 6 years 1 month
Thanks: 153489 time(s)
Unknown


Register


Go to the top of the page
  Insert nick Quick quote
+Quote Post
post Sep 7 2017, 21:07:51
Post #3

MDM-Thrash Metal
**************
Group: Металариец
Posts: 6,796
Releases: 412
From: Одесса
On Forums: 10 years 10 months
Thanks: 12949 time(s)
Ukraine


Очень даже неплохо. Да и звук посочнее стал по сравнению с предыдущими альбомами.
Go to the top of the page
  Insert nick Quick quote
+Quote Post

Reply to this topicStart new topic
1 User(s) are reading this topic (1 Guests and 0 Anonymous Users)
0 Members:

 



- Lo-Fi Version Support form
Copyrights and abuse reports form
Time is now: 18th June 2018 - 06:41:44