Welcome Guest ( Log In | Register )

 
Reply to this topicStart new topic
> Profane - 1001 Proof (1997), Thrash/Groove Metal/Hardcore (D11)
post Sep 7 2017, 20:16:57
Post #1
BAN
Banned till
Jun 28 2018, 15:53:36



(IMG:https://metalarea.org/images/audiocovers/2017_Sep/acov_tid294268_thumb.jpg)

*Artist: Profane
*Album: 1001 Proof
*Year: 1997
*Genre: Thrash/Groove Metal/Hardcore
*Country: United States (IMG:https://metalarea.org/forum/style_images/flags/United%20States.png)
*Format: mp3@CBR320kbps
*Size: 73MB

Tracklist:
01. Rise To Offend 03:48
02. Prolong The Agony 04:37
03. Out Of Reach 04:22
04. Down 4 All 04:37
05. Cross The Line 04:35
06. I Am All 05:57
07. The Fool Is You 04:17
08. Failure 02:39
******************************
Total playing time: 34:52

Technical info
(IMG:https://metalarea.org/images/spectrogram/2017_Sep/148e51fee6d4741f6e34b4119d5150e9.png)
Input File: 02 - Prolong the Agony.mp3
Channels : 2
Sample Rate : 44100
Precision : 16-bit
Duration : 00:04:36.90 = 12211158 samples = 20767.3 CDDA sectors
File Size : 11.1M
Bit Rate : 320k
Sample Encoding: MPEG audio (layer I, II or III)



Register


Go to the top of the page
  Insert nick Quick quote
+Quote Post

Reply to this topicStart new topic
1 User(s) are reading this topic (1 Guests and 0 Anonymous Users)
0 Members:

 



- Lo-Fi Version Support form
Copyrights and abuse reports form
Time is now: 21st June 2018 - 04:00:33