Welcome Guest ( Log In | Register )

 
ОтветитьСоздать новую тему
> Profane - The Spoils Of Burglaratic Victory (2000), Thrash/Groove Metal/Hardcore (D11)
post Sep 7 2017, 20:25:26
Post #1

People = Shit
**************
Group: Металариец
Posts: 5,168
Releases: 414
From: Беларусь, Минск
On Forums: 5 years 5 months
Thanks: 5604 time(s)
Belarus


(IMG:https://metalarea.org/images/audiocovers/2017_Sep/acov_tid294271_thumb.jpg)

*Artist: Profane
*Album: The Spoils Of Burglaratic Victory
*Year: 2000
*Genre: Thrash/Groove Metal/Hardcore
*Country: United States (IMG:https://metalarea.org/forum/style_images/flags/United%20States.png)
*Format: mp3@CBR320kbps
*Size: 105MB

Tracklist:
01. Doubt It 3:50
02. One Thin Dime 4:36
03. Lassard 3:17
04. Windshield 4:36
05. Front Page News 4:44
06. Soap 6:06
07. Overbearing 4:11
08. Bloodied 4:59
09. Twenty For Twenty 4:06
10. Rushed B. Boys 4:45
11. Down 4 Blind 4:23
******************************
Total playing time: 49:33

Technical info
(IMG:https://metalarea.org/images/spectrogram/2017_Sep/d736a908e94baea252f81e19c72013da.png)
Input File: 02. One Thin Dime.mp3
Channels : 2
Sample Rate : 44100
Precision : 16-bit
Duration : 00:04:36.04 = 12173144 samples = 20702.6 CDDA sectors
File Size : 11.0M
Bit Rate : 320k
Sample Encoding: MPEG audio (layer I, II or III)



Register


Thanks:
Вернуться к началу страницы
  Insert nick Quick quote
+Цитировать сообщение

ОтветитьСоздать новую тему
1 User(s) are reading this topic (1 Guests and 0 Anonymous Users)
0 Members:

 



- Lo-Fi Version Support form
Copyrights and abuse reports form
Time is now: 20th February 2018 - 01:00:29