Welcome Guest ( Log In | Register )

> И неформату есть предел.

Рэп/хип-хоп/шансон/поп удаляются. Для них есть свои порталы.

 
ОтветитьСоздать новую тему
> Turd Sandwich - Destruct/Rebuild & Paragraph 91 (2017), Crack Rock Steady/Hardcore Punk
post Sep 7 2017, 20:28:47
Post #1

Правь статус, ####!111
**************
Group: Металариец
Posts: 3,497
Releases: 1811
From: Земля
On Forums: 3 years 11 months
Thanks: 9720 time(s)
Russian Federation


(IMG:https://metalarea.org/images/audiocovers/2017_Sep/acov_tid294272_thumb.jpg)

*Artist: Turd Sandwich
*Album: Destruct/Rebuild & Paragraph 91
*Year: 2017
*Genre: Crack Rock Steady/Hardcore Punk
*Country: Germany (IMG:https://metalarea.org/forum/style_images/flags/Germany.png)
*Format: mp3@CBR320kbps
*Size: 61MB

Tracklist:
1. Destruct / Rebuild 03:08
2.Alfred 01:23
3. Waste Your Life 02:00
4. Fuck Pegida 03:47
5. Killing Is Hip 02:19
6. Germoney 02:14
7. Sex In A Church 04:00
8. Two Cops, One Cup 02:04
9. Sölch Song 04:45
******************************
Total playing time: 25:40



Technical info
(IMG:https://metalarea.org/images/spectrogram/2017_Sep/10c7a37b686628b4ce6194ef701a7b98.png)
Input File: Turd Sandwich - Destruct - Rebuild & Paragraph 91 -NTR 046- - 01 Destruct - Rebuild.mp3
Channels : 2
Sample Rate : 44100
Precision : 16-bit
Duration : 00:03:08.10 = 8295166 samples = 14107.4 CDDA sectors
File Size : 7.69M
Bit Rate : 327k
Sample Encoding: MPEG audio (layer I, II or III)
Comments :
Title=Destruct / Rebuild
Artist=Turd Sandwich
Album=Destruct / Rebuild & Paragraph 91 [NTR 046]
Tracknumber=1
Year=2017



Register
Вернуться к началу страницы
  Insert nick Quick quote
+Цитировать сообщение

ОтветитьСоздать новую тему
1 User(s) are reading this topic (1 Guests and 0 Anonymous Users)
0 Members:

 



- Lo-Fi Version Support form
Copyrights and abuse reports form
Time is now: 20th February 2018 - 00:56:44