Welcome Guest ( Log In | Register )

 
ОтветитьСоздать новую тему
> Profane - Say What You Will (2005), Thrash/Groove/Hardcore (D11)
post Sep 7 2017, 20:32:01
Post #1

People = Shit
**************
Group: Металариец
Posts: 5,168
Releases: 414
From: Беларусь, Минск
On Forums: 5 years 5 months
Thanks: 5604 time(s)
Belarus


(IMG:https://metalarea.org/images/audiocovers/2017_Sep/acov_tid294273_thumb.jpg)

*Artist: Profane
*Album: Say What You Will
*Year: 2005
*Genre: Thrash/Groove/Hardcore
*Country: United States (IMG:https://metalarea.org/forum/style_images/flags/United%20States.png)
*Format: mp3@CBR320kbps
*Size: 98MB

Tracklist:
01. Tickets To The Show 02:54
02. Hitler Wanna Be 03:37
03. Beautiful 04:19
04. Buffet 02:59
05. Assassin 03:23
06. Discontent 04:55
07. Turdy 02:21
08. Shrug It Off 03:56
09. Spokes On The Wheel 03:13
10. Show Your Face 04:04
11. You 03:47
12. The Devil 03:44
******************************
Total playing time: 43:12

Technical info
(IMG:https://metalarea.org/images/spectrogram/2017_Sep/b8c0ed40fac1538f538243faa5453ea2.png)
Input File: 01 - Tickets to the Show.mp3
Channels : 2
Sample Rate : 44100
Precision : 16-bit
Duration : 00:02:54.25 = 7684557 samples = 13069 CDDA sectors
File Size : 7.33M
Bit Rate : 337k
Sample Encoding: MPEG audio (layer I, II or III)
Comments :
Title=Tickets to the Show
Artist=PROFANE
Album=Say What You Will
Tracknumber=1
Year=2005



Register


Thanks:
Вернуться к началу страницы
  Insert nick Quick quote
+Цитировать сообщение

ОтветитьСоздать новую тему
1 User(s) are reading this topic (1 Guests and 0 Anonymous Users)
0 Members:

 



- Lo-Fi Version Support form
Copyrights and abuse reports form
Time is now: 20th February 2018 - 01:00:41