Welcome Guest ( Log In | Register )

> И неформату есть предел.

Рэп/хип-хоп/шансон/поп удаляются. Для них есть свои порталы.

 
ОтветитьСоздать новую тему
> Mesecina - Mesecina [ep] (2017), Grindcore/Powerviolence
post Sep 7 2017, 20:54:13
Post #1

Правь статус, ####!111
**************
Group: Металариец
Posts: 3,497
Releases: 1811
From: Земля
On Forums: 3 years 11 months
Thanks: 9723 time(s)
Russian Federation


(IMG:https://metalarea.org/images/audiocovers/2017_Sep/acov_tid294276_thumb.jpg)

*Artist: Mesecina
*Album: Mesecina [ep]
*Year: 2017
*Genre: Grindcore/Powerviolence
*Country: Italy (IMG:https://metalarea.org/forum/style_images/flags/Italy.png)
*Format: mp3@CBR320kbps
*Size: 29MB

Tracklist:
1. jedni veceni na mesecini + giullari 01:09
2. Rinascita Revoluzionaria 00:34
3. Raporti Forzati 00:54
4. Luchando 01:23
5. Como Macacos Enjaulados 00:53
6. Punx e La Metropoli 00:52
7. 750.000 Anni Dopo... L'amore 01:10
8. Atertagrande 01:20
9. Beograd gori u ocima sase 03:39
******************************
Total playing time: 11:54



Technical info
(IMG:https://metalarea.org/images/spectrogram/2017_Sep/5e71b1c83a53a8d2386e9265abc4ab45.png)
Input File: Mesecina - Mesecina - S-T - 01 jedni veceni na mesecini + giullari.mp3
Channels : 2
Sample Rate : 44100
Precision : 16-bit
Duration : 00:01:09.68 = 3072668 samples = 5225.63 CDDA sectors
File Size : 2.96M
Bit Rate : 340k
Sample Encoding: MPEG audio (layer I, II or III)
Comments :
Title=jedni veceni na mesecini + giullari
Artist=Mesecina
Album=Mesecina - S/T
Tracknumber=1
Year=2017



Register
Вернуться к началу страницы
  Insert nick Quick quote
+Цитировать сообщение

ОтветитьСоздать новую тему
1 User(s) are reading this topic (1 Guests and 0 Anonymous Users)
0 Members:

 



- Lo-Fi Version Support form
Copyrights and abuse reports form
Time is now: 25th February 2018 - 08:20:56