Welcome Guest ( Log In | Register )

> И неформату есть предел.

Рэп/хип-хоп/шансон/поп удаляются. Для них есть свои порталы.

 
Reply to this topicStart new topic
> Corrupt Vision - Corrupt Vision [ep] (2017), Crack Rock Steady/Powerviolence/Crust
post Sep 7 2017, 21:18:31
Post #1

Правь статус, ####!111
**************
Group: Металариец
Posts: 3,497
Releases: 1811
From: Земля
On Forums: 4 years 3 months
Thanks: 9754 time(s)
Russian Federation


(IMG:https://metalarea.org/images/audiocovers/2017_Sep/acov_tid294279_thumb.jpg)

*Artist: Corrupt Vision
*Album: Corrupt Vision [ep]
*Year: 2017
*Genre: Crack Rock Steady/Powerviolence/Crust
*Country: United States (IMG:https://metalarea.org/forum/style_images/flags/United%20States.png)
*Format: mp3@CBR320kbps
*Size: 29MB

Tracklist:
1. Death and Taxes 03:25
2. Brick By Brick 01:35
3. Uncertain 02:31
4. Blood In, Blood Out 01:31
5. Steadfast 02:56
******************************
Total playing time: 11:58



Technical info
(IMG:https://metalarea.org/images/spectrogram/2017_Sep/0ecd4a991da14914393755f75ce7f154.png)
Input File: Corrupt Vision - Corrupt Vision - 01 Death and Taxes.mp3
Channels : 2
Sample Rate : 44100
Precision : 16-bit
Duration : 00:03:25.24 = 9050952 samples = 15392.8 CDDA sectors
File Size : 8.42M
Bit Rate : 328k
Sample Encoding: MPEG audio (layer I, II or III)
Comments :
Title=Death and Taxes
Artist=Corrupt Vision
Album=Corrupt Vision
Tracknumber=1
Year=2017



Register
Go to the top of the page
  Insert nick Quick quote
+Quote Post

Reply to this topicStart new topic
1 User(s) are reading this topic (1 Guests and 0 Anonymous Users)
0 Members:

 



- Lo-Fi Version Support form
Copyrights and abuse reports form
Time is now: 23rd June 2018 - 11:21:14