Welcome Guest ( Log In | Register )

> И неформату есть предел.

Рэп/хип-хоп/шансон/поп удаляются. Для них есть свои порталы.

 
ОтветитьСоздать новую тему
> Thangorodrim - Towers Of The Teeth [ep] (2016), Dungeon Synth/Dark Ambient
post Sep 7 2017, 21:27:32
Post #1

Angel Eviscerator
**************
Group: Металариец
Posts: 4,007
Releases: 2684
From: 55°35’N 38°08’E
On Forums: 9 years 7 months
Thanks: 51354 time(s)
Russian Federation


(IMG:http://metalarea.org/images/audiocovers/2017_Sep/acov_tid294281_thumb.jpg)

*Artist: Thangorodrim
*Album: Towers Of The Teeth [ep]
*Year: 2016
*Genre: Dungeon Synth/Dark Ambient
*Country: United States (IMG:http://metalarea.org/forum/style_images/flags/United%20States.png)
*Format: mp3@CBR320kbps
*Size: 63MB

Tracklist:
1.Narchost 13:52
2.Carchost 13:24
******************************
Total playing time: 27:16



Technical info
(IMG:http://metalarea.org/images/spectrogram/2017_Sep/9dd050c4c3658752e0e95eba377f6f93.png)
Input File: 01 Narchost.mp3
Channels : 2
Sample Rate : 44100
Precision : 16-bit
Duration : 00:13:52.16 = 36698080 samples = 62411.7 CDDA sectors
File Size : 33.5M
Bit Rate : 322k
Sample Encoding: MPEG audio (layer I, II or III)
Comments :
Title=Narchost
Artist=Thangorodrim
Album=Towers of the Teeth
Tracknumber=1
Year=2016



Register


Thanks:
Вернуться к началу страницы
  Insert nick Quick quote
+Цитировать сообщение

ОтветитьСоздать новую тему
1 User(s) are reading this topic (1 Guests and 0 Anonymous Users)
0 Members:

 



- Lo-Fi Version Support form
Copyrights and abuse reports form
Time is now: 20th February 2018 - 12:57:56