Welcome Guest ( Log In | Register )

> И неформату есть предел.

Рэп/хип-хоп/шансон/поп удаляются. Для них есть свои порталы.

 
Reply to this topicStart new topic
> Thangorodrim - Towers Of The Teeth [ep] (2016), Dungeon Synth/Dark Ambient
post Sep 7 2017, 21:27:32
Post #1

Правь статус, ####!616
**************
Group: Металариец
Posts: 4,398
Releases: 3004
From: 55°35’N 38°08’E
On Forums: 9 years 11 months
Thanks: 55882 time(s)
Unknown


(IMG:http://metalarea.org/images/audiocovers/2017_Sep/acov_tid294281_thumb.jpg)

*Artist: Thangorodrim
*Album: Towers Of The Teeth [ep]
*Year: 2016
*Genre: Dungeon Synth/Dark Ambient
*Country: United States (IMG:http://metalarea.org/forum/style_images/flags/United%20States.png)
*Format: mp3@CBR320kbps
*Size: 63MB

Tracklist:
1.Narchost 13:52
2.Carchost 13:24
******************************
Total playing time: 27:16



Technical info
(IMG:http://metalarea.org/images/spectrogram/2017_Sep/9dd050c4c3658752e0e95eba377f6f93.png)
Input File: 01 Narchost.mp3
Channels : 2
Sample Rate : 44100
Precision : 16-bit
Duration : 00:13:52.16 = 36698080 samples = 62411.7 CDDA sectors
File Size : 33.5M
Bit Rate : 322k
Sample Encoding: MPEG audio (layer I, II or III)
Comments :
Title=Narchost
Artist=Thangorodrim
Album=Towers of the Teeth
Tracknumber=1
Year=2016



Register


Thanks:
Go to the top of the page
  Insert nick Quick quote
+Quote Post

Reply to this topicStart new topic
1 User(s) are reading this topic (1 Guests and 0 Anonymous Users)
0 Members:

 



- Lo-Fi Version Support form
Copyrights and abuse reports form
Time is now: 23rd June 2018 - 11:24:01