Welcome Guest ( Log In | Register )

 
Reply to this topicStart new topic
> Mary Cries Red - Visceral Anathema (2017), Death/Thrash Metal/Hardcore
post Sep 8 2017, 12:00:38
Post #1

Правь статус, ####!111
**************
Group: Металариец
Posts: 13,329
Releases: 9406
From: Г.Харьков
On Forums: 6 years 1 month
Thanks: 153489 time(s)
Unknown


(IMG:http://metalarea.org/images/audiocovers/2017_Sep/acov_tid294296_thumb.jpg)

*Artist: Mary Cries Red
*Album: Visceral Anathema
*Year: 2017
*Genre: Death/Thrash Metal/Hardcore
*Country: United States (IMG:http://metalarea.org/forum/style_images/flags/United%20States.png)
*Format: mp3@CBR320kbps
*Size: 66MB

Tracklist:
1. Anathema 666 01:29
2. Demons 03:17
3. Carnage 03:21
4. Darkness Beneath Us 03:30
5. The Reaping 03:51
6. Cesspool 02:52
7. Serenity 03:22
8. Vanquished 03:08
9. Let the Blood Flow 03:12
******************************
Total playing time: 28:02




Extended info


Technical info
(IMG:http://metalarea.org/images/spectrogram/2017_Sep/d8d91838f796c419e03c8cdbc2e613eb.png)
Input File: 2 - Demons.mp3
Channels : 2
Sample Rate : 44100
Precision : 16-bit
Duration : 00:03:17.96 = 8729904 samples = 14846.8 CDDA sectors
File Size : 8.14M
Bit Rate : 329k
Sample Encoding: MPEG audio (layer I, II or III)
Comments :
Title=Demons
Artist=Mary Cries Red
Album=Visceral Anathema
Tracknumber=2/9
Year=2017



Register


Go to the top of the page
  Insert nick Quick quote
+Quote Post

Reply to this topicStart new topic
1 User(s) are reading this topic (1 Guests and 0 Anonymous Users)
0 Members:

 



- Lo-Fi Version Support form
Copyrights and abuse reports form
Time is now: 18th June 2018 - 06:42:41