Welcome Guest ( Log In | Register )

> Dogman - In Torment I Die [demo] (2017), Raw Black Metal
post Sep 9 2017, 06:27:25
Post #1
BAN
Banned till
Jul 5 2291, 15:15:40



(IMG:https://metalarea.org/images/audiocovers/2017_Sep/acov_tid294327_thumb.jpg)

*Artist: Dogman
*Album: In Torment I Die [demo]
*Year: 2017
*Genre: Raw Black Metal
*Country: Bosnia and Herzegovina (IMG:https://metalarea.org/forum/style_images/flags/Bosnia%20and%20Herzegovina.png)
*Format: mp3@CBR320kbps
*Size: 42MB

Tracklist:
1. Intro 00:28 instrumental
2. Vampyric Death 03:38
3. Insanity 03:32
4. Desperation 04:07
5. In Torment I Die 06:05
******************************
Total playing time: 17:50

Technical info
(IMG:https://metalarea.org/images/spectrogram/2017_Sep/f5565e8fbc20a544f705fc3ef5bc986f.png)
Input File: 2.Dogman - Vampyric Death.mp3
Channels : 2
Sample Rate : 44100
Precision : 16-bit
Duration : 00:03:43.92 = 9875048 samples = 16794.3 CDDA sectors
File Size : 8.96M
Bit Rate : 320k
Sample Encoding: MPEG audio (layer I, II or III)
Comments :
Title=Vampyric Death
Artist=Dogman
Album=In Torment I Die
Tracknumber=02



Register


Go to the top of the page
  Insert nick Quick quote
+Quote Post
 
Start new topic
Replies (1 - 1)
post Sep 11 2017, 07:50:53
Post #2

Satan bless you!
**************
Group: Металариец
Posts: 3,153
Releases: 63
From: Москва
On Forums: 9 years 11 months
Thanks: 2712 time(s)
Russian Federation




Thanks:
(1) serg1349,
Go to the top of the page
  Insert nick Quick quote
+Quote Post

Reply to this topicStart new topic
1 User(s) are reading this topic (1 Guests and 0 Anonymous Users)
0 Members:

 



- Lo-Fi Version Support form
Copyrights and abuse reports form
Time is now: 21st June 2018 - 04:00:29