Welcome Guest ( Log In | Register )

> Правила / Rules

Тут только для чтения лежат низкобитрейтные (<192kbps) релизы, для которых есть аналоги в высокобитрейтных форумах.

Here goes (and stand in read only mode) low bitrate releases (<192kbps) which were already replaced by high bitrate releases in corresponding forums.

Причина закрытия (Хогги 11-02-2018):
 
Closed TopicStart new topic
> Deathcircle - Unfair Relief [demo] (2017), Raw Black Metal (D)
post Sep 9 2017, 06:32:24
Post #1
BAN
Banned till
Jul 5 2291, 15:15:40



(IMG:https://metalarea.org/images/audiocovers/2017_Sep/acov_tid294329_thumb.jpg)

*Artist: Deathcircle
*Album: Unfair Relief [demo]
*Year: 2017
*Genre: Raw Black Metal
*Country: Bosnia and Herzegovina (IMG:https://metalarea.org/forum/style_images/flags/Bosnia%20and%20Herzegovina.png)
*Format: mp3@CBR320kbps
*Size: 51MB

Tracklist:
1. De leegte van mijn bestaan 12:33
2. Unfair Relief 09:43
******************************
Total playing time: 22:16

Technical info
(IMG:https://metalarea.org/images/spectrogram/2017_Sep/30ce51467d51f9953180346b47f90984.png)
Input File: 2.Deathcircle - De Leegte Van Mijn Bestaan.mp3
Channels : 2
Sample Rate : 44100
Precision : 16-bit
Duration : 00:12:33.06 = 33209902 samples = 56479.4 CDDA sectors
File Size : 30.1M
Bit Rate : 320k
Sample Encoding: MPEG audio (layer I, II or III)
Comments :
Title=De Leegte Van Mijn Bestaan
Artist=Deathcircle
Album=Unfair Relief
Tracknumber=01



Register


Go to the top of the page
  Insert nick Quick quote
+Quote Post

Причина закрытия (Хогги 11-02-2018):
Closed TopicStart new topic
1 User(s) are reading this topic (1 Guests and 0 Anonymous Users)
0 Members:

 



- Lo-Fi Version Support form
Copyrights and abuse reports form
Time is now: 18th June 2018 - 06:45:36