Welcome Guest ( Log In | Register )

> И неформату есть предел.

Рэп/хип-хоп/шансон/поп удаляются. Для них есть свои порталы.

 
ОтветитьСоздать новую тему
> Various Artists - Sonic Seducer: Cold Hands Seduction 190 - Mittelalter-Musik 6 [best of/compilation] (2017), Medieval/Pirate (D1996)
post Sep 9 2017, 12:05:01
Post #1

Мегаманьяк
***********
Group: Металариец
Posts: 1,658
Releases: 463
On Forums: 9 years 10 months
Thanks: 6298 time(s)
Ireland


(IMG:https://metalarea.org/images/audiocovers/2017_Sep/acov_tid294343_thumb.jpg)

*Artist: Various Artists
*Album: Sonic Seducer: Cold Hands Seduction 190 - Mittelalter-Musik 6 [best of/compilation]
*Year: 2017
*Genre: Medieval/Pirate
*Country: Many (IMG:https://metalarea.org/forum/style_images/flags/Many.png)
*Format: mp3@CBR320kbps
*Size: 173MB

Tracklist:
01. Saltatio Mortis - Früher war alles besser (live) [Exklusiv]
02. Irdorath - Black Flag
03. Elmsfeuer - Rumbar
04. Ye Banished Privateers - First Night Back In Port
05. Fuchsteufekswild - Stich mit uns in See
06. The Royal Spuds - Silver Linings
07. LQR - Gravy Train
08. Odroerir - Abecedarium Nord (Edit)
09. Pyrolysis - Drenchman's Song
10. Prima Nocta - Spirits Of The Woods
11. Totus Gaudeo - Wallnussbaum
12. Ganaim - Follow Me Up To Carlow
13. Waldkauz - Dimna Juda
14. Fairytale - Autumn s Crown
15. Gwendolyn Snowdown - Lovely On The Water
16. Vitae (Special Guest: Joran [Elane]) - Spirit
17. Grennrose Faire - Feed The Flames
18. Jyoti Verhoeff - Field Of Night
******************************
Total playing time: 1:17:34

Technical info
(IMG:https://metalarea.org/images/spectrogram/2017_Sep/c4a60dbc6871f5698c8b95b3ad0a951e.png)
Input File: 11. Totus Gaudeo - Wallnussbaum.mp3
Channels : 2
Sample Rate : 44100
Precision : 16-bit
Duration : 00:04:37.84 = 12252788 samples = 20838.1 CDDA sectors
File Size : 11.2M
Bit Rate : 323k
Sample Encoding: MPEG audio (layer I, II or III)
Comments :
Title=Wallnussbaum
Artist=Totus Gaudeo
Album=Cold Hands Seduction Vol. 190 - Mittelalter-Musik 6
Tracknumber=11
Year=2017
Genre=Medieval/Folk



Register


Thanks:
Вернуться к началу страницы
  Insert nick Quick quote
+Цитировать сообщение

ОтветитьСоздать новую тему
1 User(s) are reading this topic (1 Guests and 0 Anonymous Users)
0 Members:

 



- Lo-Fi Version Support form
Copyrights and abuse reports form
Time is now: 25th February 2018 - 08:20:05