Welcome Guest ( Log In | Register )

> И неформату есть предел.

Рэп/хип-хоп/шансон/поп удаляются. Для них есть свои порталы.

 
Reply to this topicStart new topic
> Diabolos Rising - S.N.T.F. [single] (1995), Darkwave/Industrial
post Sep 9 2017, 17:29:42
Post #1

Правь статус, ####!616
**************
Group: Металариец
Posts: 4,398
Releases: 3004
From: 55°35’N 38°08’E
On Forums: 9 years 11 months
Thanks: 55882 time(s)
Unknown


(IMG:http://metalarea.org/images/audiocovers/2017_Sep/acov_tid294352_thumb.jpg)

*Artist: Diabolos Rising
*Album: S.N.T.F. [single]
*Year: 1995
*Genre: Darkwave/Industrial
*Country: Greece (IMG:http://metalarea.org/forum/style_images/flags/Greece.png)
*Format: mp3@CBR320kbps
*Size: 32MB

Tracklist:
1. Satanic Propaganda (S.N.T.F. Rising) 04:49
2. Devilreal 02:25
******************************
Total playing time: 7:14

Extended info
Vinyl-Rip + scans


Technical info
(IMG:http://metalarea.org/images/spectrogram/2017_Sep/70a31e90cc901c8cf6a1d4226d4967a6.png)
Input File: 01 Satanic Propaganda (S.N.T.F. Rising).mp3
Channels : 2
Sample Rate : 44100
Precision : 16-bit
Duration : 00:04:52.22 = 12886814 samples = 21916.4 CDDA sectors
File Size : 11.7M
Bit Rate : 320k
Sample Encoding: MPEG audio (layer I, II or III)
Comments :
Title=Satanic Propaganda (S.N.T.F. Rising)
Artist=Diabolos Rising
Album=S.N.T.F.
Tracknumber=1
Year=1995
Genre=Black Metal



Register


Go to the top of the page
  Insert nick Quick quote
+Quote Post

Reply to this topicStart new topic
1 User(s) are reading this topic (1 Guests and 0 Anonymous Users)
0 Members:

 



- Lo-Fi Version Support form
Copyrights and abuse reports form
Time is now: 23rd June 2018 - 11:22:45