Welcome Guest ( Log In | Register )

> Arjen - Kada Duša Uživa U Praznini [ep] (2015), Black Metal/Ambient
post Sep 10 2017, 12:43:02
Post #1
BAN
Banned till
Jul 5 2291, 15:15:40



(IMG:https://metalarea.org/images/audiocovers/2017_Sep/acov_tid294401_thumb.jpg)

*Artist: Arjen
*Album: Kada Duša Uživa U Praznini [ep]
*Year: 2015
*Genre: Black Metal/Ambient
*Country: Bosnia and Herzegovina (IMG:https://metalarea.org/forum/style_images/flags/Bosnia%20and%20Herzegovina.png)
*Format: mp3@CBR320kbps
*Size: 37MB

Tracklist:
1. Buket tuge, krvi i mesa 01:21
2. Kada duša uživa u praznini 03:08
3. Ples 02:20
4. Pomračena slika 02:00
5. Kletva 03:07
6. Sjena 03:22
******************************
Total playing time: 15:18

Technical info
(IMG:https://metalarea.org/images/spectrogram/2017_Sep/038df1f7d27cb38dff18a07b2c0d437e.png)
Input File: Arjen - Kada duЕЎa uЕѕiva u praznini - 01 Buket tuge, krvi i mesa.mp3
Channels : 2
Sample Rate : 44100
Precision : 16-bit
Duration : 00:01:21.64 = 3600324 samples = 6123 CDDA sectors
File Size : 3.48M
Bit Rate : 341k
Sample Encoding: MPEG audio (layer I, II or III)
Comments :
Title=Buket tuge, krvi i mesa
Artist=Arjen
Album=Kada duЕЎa uЕѕiva u praznini
Tracknumber=1
Year=2015



Register


Вернуться к началу страницы
  Insert nick Quick quote
+Цитировать сообщение
 
Создать новую тему
Replies (1 - 2)
post Sep 10 2017, 22:36:00
Post #2

Два Литра
**
Group: Завсегдатай
Posts: 114
Releases: 0
On Forums: 2 years 9 months
Thanks: 52 time(s)
Ukraine


Вернуться к началу страницы
  Insert nick Quick quote
+Цитировать сообщение
post Oct 10 2017, 20:13:17
Post #3

antithesis
**************
Group: Металариец
Posts: 2,000
Releases: 27
From: VRN
On Forums: 7 years 8 months
Thanks: 1031 time(s)
Russian Federation


в 5 треке есть с минуту чермета, в остальном - пиликающие меланхоличные пианинки.
Вернуться к началу страницы
  Insert nick Quick quote
+Цитировать сообщение

ОтветитьСоздать новую тему
1 User(s) are reading this topic (1 Guests and 0 Anonymous Users)
0 Members:

 



- Lo-Fi Version Support form
Copyrights and abuse reports form
Time is now: 20th February 2018 - 00:58:49