Welcome Guest ( Log In | Register )

> Arjen - Kada Duša Uživa U Praznini [ep] (2015), Black Metal/Ambient
post Sep 10 2017, 12:43:02
Post #1
BAN
Banned till
Jul 5 2291, 15:15:40



(IMG:https://metalarea.org/images/audiocovers/2017_Sep/acov_tid294401_thumb.jpg)

*Artist: Arjen
*Album: Kada Duša Uživa U Praznini [ep]
*Year: 2015
*Genre: Black Metal/Ambient
*Country: Bosnia and Herzegovina (IMG:https://metalarea.org/forum/style_images/flags/Bosnia%20and%20Herzegovina.png)
*Format: mp3@CBR320kbps
*Size: 37MB

Tracklist:
1. Buket tuge, krvi i mesa 01:21
2. Kada duša uživa u praznini 03:08
3. Ples 02:20
4. Pomračena slika 02:00
5. Kletva 03:07
6. Sjena 03:22
******************************
Total playing time: 15:18

Technical info
(IMG:https://metalarea.org/images/spectrogram/2017_Sep/038df1f7d27cb38dff18a07b2c0d437e.png)
Input File: Arjen - Kada duЕЎa uЕѕiva u praznini - 01 Buket tuge, krvi i mesa.mp3
Channels : 2
Sample Rate : 44100
Precision : 16-bit
Duration : 00:01:21.64 = 3600324 samples = 6123 CDDA sectors
File Size : 3.48M
Bit Rate : 341k
Sample Encoding: MPEG audio (layer I, II or III)
Comments :
Title=Buket tuge, krvi i mesa
Artist=Arjen
Album=Kada duЕЎa uЕѕiva u praznini
Tracknumber=1
Year=2015



Register


Go to the top of the page
  Insert nick Quick quote
+Quote Post
 
Start new topic
Replies (1 - 2)
post Sep 10 2017, 22:36:00
Post #2

Два Литра
**
Group: Завсегдатай
Posts: 121
Releases: 0
On Forums: 3 years 1 month
Thanks: 53 time(s)
Ukraine


Go to the top of the page
  Insert nick Quick quote
+Quote Post
post Oct 10 2017, 20:13:17
Post #3

antithesis
**************
Group: Металариец
Posts: 2,168
Releases: 27
From: VRN
On Forums: 8 years 3 weeks
Thanks: 1126 time(s)
Russian Federation


в 5 треке есть с минуту чермета, в остальном - пиликающие меланхоличные пианинки.
Go to the top of the page
  Insert nick Quick quote
+Quote Post

Reply to this topicStart new topic
1 User(s) are reading this topic (1 Guests and 0 Anonymous Users)
0 Members:

 



- Lo-Fi Version Support form
Copyrights and abuse reports form
Time is now: 18th June 2018 - 06:39:24