Welcome Guest ( Log In | Register )

> Seelenfrost - Des Mondes Staub (2017), Black Metal (D)
post Sep 10 2017, 15:36:35
Post #1

Правь статус, ####!111
**************
Group: Металариец
Posts: 3,723
Releases: 870
From: Brazil
On Forums: 7 years 5 months
Thanks: 32919 time(s)
Brazil


(IMG:https://metalarea.org/images/audiocovers/2017_Sep/acov_tid294416_thumb.jpg)

*Artist: Seelenfrost
*Album: Des Mondes Staub
*Year: 2017
*Genre: Black Metal
*Country: Germany (IMG:https://metalarea.org/forum/style_images/flags/Germany.png)
*Format: mp3@CBR320kbps
*Size: 128MB

Tracklist:
1. Des Mondes Staub 05:53
2. Vanth 04:24
3. In ewiger Asche 04:29
4. Im Dickicht 04:06
5. Bildnis 04:58
6. Sinnessturm 04:23
7. Sternenpfad 03:57
8. Brach 04:21
9. Zeitenwanderer 03:03
10. Dunstger Hauch 03:56
11. Die Kollision der Zeit 05:31
12. Ritus 05:50
******************************
Total playing time: 54:51

Extended info
CD-rip
Exclusively for Metalarea.

Talheim Records - TR044CD
Digibook, limited to 500 copies

Lineup

D.F.D.E. Drums
See also: ex-Baerenzorn

Semgoroth Guitars, Bass (2006-present)
See also: Dauþuz, Idhafels, ex-Geistbeschwörer, ex-Schattenthron, ex-Seelenwinter, ex-Auf dem schwarzen Thron

Wächter Rutan Vocals (2006-present)
See also: ex-Baerenzorn

Nostarion Cello (2010-present)
See also: Dämmerfarben, Dystertid, Enid, Folkearth, Folkodia, Funeral Procession, Idhafels, Throndt, Ulfsdalir, Vyre, ex-2Excess, ex-Autumn in Frost, The Evening (Deu), ex-Cerberus, ex-Falkenbach (live), ex-Fetus Excavation


Technical info
(IMG:https://metalarea.org/images/spectrogram/2017_Sep/51eed776765af302d626bd2911b217ed.png)
Input File: 03 In ewiger Asche.mp3
Channels : 2
Sample Rate : 44100
Precision : 16-bit
Duration : 00:04:31.73 = 11983073 samples = 20379.4 CDDA sectors
File Size : 10.9M
Bit Rate : 320k
Sample Encoding: MPEG audio (layer I, II or III)
Comments :
Title=In ewiger Asche
Artist=Seelenfrost
Album=Des Mondes Staub
Tracknumber=3/12
Discnumber=1/1



Register


Go to the top of the page
  Insert nick Quick quote
+Quote Post
 
Start new topic
Replies (1 - 4)
post Sep 10 2017, 17:34:24
Post #2

Absorbence
***********
Group: Металариец
Posts: 1,674
Releases: 215
From: Vastland Abyss of Cthulhu
On Forums: 12 years 8 months
Thanks: 3700 time(s)
Canada


thanks for the efforts!
Go to the top of the page
  Insert nick Quick quote
+Quote Post
post Sep 10 2017, 17:41:13
Post #3

Morbid Angel
**************
Group: Металариец
Posts: 4,166
Releases: 0
From: Литва г.Клайпеда
On Forums: 12 years 4 months
Thanks: 1773 time(s)
Lithuania




Thanks:
Go to the top of the page
  Insert nick Quick quote
+Quote Post
post Sep 10 2017, 19:50:51
Post #4

MDM-Thrash Metal
**************
Group: Металариец
Posts: 8,328
Releases: 493
From: Одесса
On Forums: 11 years 11 months
Thanks: 15753 time(s)
Ukraine


Register


Thanks:
Go to the top of the page
  Insert nick Quick quote
+Quote Post
post May 1 2018, 08:32:43
Post #5

Пять Литров
*****
Group: Металариец
Posts: 412
Releases: 0
On Forums: 2 years 11 months
Thanks: 29 time(s)
Unknown


Hammer release! (IMG:style_emoticons/default/true_black.gif) (IMG:style_emoticons/default/20.gif)
Go to the top of the page
  Insert nick Quick quote
+Quote Post

Reply to this topicStart new topic
2 User(s) are reading this topic (2 Guests and 0 Anonymous Users)
0 Members:

 



- Lo-Fi Version Support form
Copyrights and abuse reports form
Time is now: 17th July 2019 - 05:19:47