Welcome Guest ( Log In | Register )

> Bròn - Where The Leaden Dawn Meets Iron Shores (2017), Atmospheric Black Metal
post Sep 11 2017, 08:18:03
Post #1

Правь статус, ####!616
**************
Group: Металариец
Posts: 4,674
Releases: 3257
From: 55°35’N 38°08’E
On Forums: 11 years 1 month
Thanks: 61270 time(s)
Unknown


(IMG:http://metalarea.org/images/audiocovers/2017_Sep/acov_tid294441_thumb.jpg)

*Artist: Bròn
*Album: Where The Leaden Dawn Meets Iron Shores
*Year: 2017
*Genre: Atmospheric Black Metal
*Country: United Kingdom (IMG:http://metalarea.org/forum/style_images/flags/United%20Kingdom.png)
*Format: mp3@CBR320kbps
*Size: 171MB

Tracklist:
1.I. Nebula Burial 24:45
2.II. Through Obsidian Teeth 28:09
3.III. Where the Leaden Dawn Meets Iron Shores 21:00
******************************
Total playing time: 1:13:54




Technical info
(IMG:http://metalarea.org/images/spectrogram/2017_Sep/c958267dad6045b341643f5e8f44e1cb.png)
Input File: 01 I. Nebula Burial.mp3
Channels : 2
Sample Rate : 44100
Precision : 16-bit
Duration : 00:24:45.80 = 65523956 samples = 111435 CDDA sectors
File Size : 59.5M
Bit Rate : 320k
Sample Encoding: MPEG audio (layer I, II or III)
Comments :
Title=I. Nebula Burial
Artist=BrГІn
Album=Where the Leaden Dawn Meets Iron Shores
Tracknumber=1
Year=2017
Genre=Black Metal



Register


Go to the top of the page
  Insert nick Quick quote
+Quote Post
 
Start new topic
Replies (1 - 6)
post Sep 12 2017, 17:01:35
Post #2

Три Литра
***
Group: Завсегдатай
Posts: 262
Releases: 0
On Forums: 5 years 9 months
Thanks: 7 time(s)
Germany


Can anybody reup this file?
Go to the top of the page
  Insert nick Quick quote
+Quote Post
post Sep 12 2017, 17:20:03
Post #3

Правь статус, ####!616
**************
Group: Металариец
Posts: 4,674
Releases: 3257
From: 55°35’N 38°08’E
On Forums: 11 years 1 month
Thanks: 61270 time(s)
Unknown


Register


Go to the top of the page
  Insert nick Quick quote
+Quote Post
post Jan 3 2018, 21:46:24
Post #4

ретроград
**************
Group: Металариец
Posts: 4,794
Releases: 177
On Forums: 12 years 2 months
Thanks: 7044 time(s)
Vatican City


В стиль еще надо Ambient добавить, его тут не меньше 50-ти процентов! И кстати очень неплохого, как и атмосферик БМ-а. Медитативная музыка, для расслабона...
Go to the top of the page
  Insert nick Quick quote
+Quote Post
post May 4 2018, 15:40:50
Post #5

Пять Литров
*****
Group: Металариец
Posts: 417
Releases: 0
On Forums: 3 years 3 weeks
Thanks: 29 time(s)
Unknown


Boring! Not good.
Go to the top of the page
  Insert nick Quick quote
+Quote Post
post Jun 29 2019, 18:14:08
Post #6

Group: Дух
Posts: 1
Releases: 0
On Forums: 3 months 1 day
Thanks: 0 time(s)
China


Could you please re-upload it?
Go to the top of the page
  Insert nick Quick quote
+Quote Post
post Jun 29 2019, 19:20:28
Post #7

ретроград
**************
Group: Металариец
Posts: 4,794
Releases: 177
On Forums: 12 years 2 months
Thanks: 7044 time(s)
Vatican City


Register


Thanks:
Go to the top of the page
  Insert nick Quick quote
+Quote Post

Reply to this topicStart new topic
2 User(s) are reading this topic (2 Guests and 0 Anonymous Users)
0 Members:

 



- Lo-Fi Version Support form
Copyrights and abuse reports form
Time is now: 19th August 2019 - 19:37:42