Welcome Guest ( Log In | Register )

> Vandel - Suspicion (2017), Gothic/Doom Metal
post Sep 11 2017, 08:40:20
Post #1

Аннигилятор пивА
Group Icon
Group: V.I.P
Posts: 45,779
Releases: 13668
From: Koenigsberg - TILZIT
On Forums: 11 years 8 months
Thanks: 302448 time(s)
Russian Federation


(IMG:https://metalarea.org/images/audiocovers/2017_Sep/acov_tid294442_thumb.png)

*Artist: Vandel
*Album: Suspicion
*Year: 2017
*Genre: Gothic/Doom Metal
*Country: Netherlands (IMG:https://metalarea.org/forum/style_images/flags/Netherlands.png)
*Format: mp3@CBR320kbps
*Size: 87MB

Tracklist:
1. Suspicion 06:09
2. When the Time Comes 04:29
3. Secrecy 07:41
4. This Vivid Dream 06:34
5. Artificial 08:43
6. Are they Mirrors 03:15
******************************
Total playing time: 36:51




Extended info
Vandel is a Doom metal band influenced by bands like Type o Negative, the Cure, My Dying Bride.
R. Van Delden Bass
A. van Delden Drums
M. Van Delden Guitars, Vocals


Technical info
(IMG:https://metalarea.org/images/spectrogram/2017_Sep/b7e46703fb8b3eb58ed231b9eaeffea1.png)
Input File: 2 - When the time comes.mp3
Channels : 2
Sample Rate : 44100
Precision : 16-bit
Duration : 00:04:30.06 = 11909514 samples = 20254.3 CDDA sectors
File Size : 11.2M
Bit Rate : 333k
Sample Encoding: MPEG audio (layer I, II or III)
Comments :
Title=When the time comes
Artist=Vandel
Album=Suspicion
Tracknumber=2/6
Year=2017
Genre=Metal



Register


Вернуться к началу страницы
  Insert nick Quick quote
+Цитировать сообщение
 
Создать новую тему
Replies (1 - 7)
post Sep 11 2017, 09:04:03
Post #2

Аннигилятор пивА
Group Icon
Group: V.I.P
Posts: 45,779
Releases: 13668
From: Koenigsberg - TILZIT
On Forums: 11 years 8 months
Thanks: 302448 time(s)
Russian Federation



MIRROR
Register


Thanks:
Вернуться к началу страницы
  Insert nick Quick quote
+Цитировать сообщение
post Sep 11 2017, 19:58:46
Post #3

Шесть Литров
******
Group: Металариец
Posts: 551
Releases: 0
On Forums: 8 years 9 months
Thanks: 186 time(s)
Belarus


Тот самый случай,когда видишь картинку альбома и сразу все понятно.
Вернуться к началу страницы
  Insert nick Quick quote
+Цитировать сообщение
post Sep 11 2017, 20:22:54
Post #4

Маньяк
**********
Group: Металариец
Posts: 1,037
Releases: 0
From: Russian Federation - St.Petersburg
On Forums: 8 years 11 months
Thanks: 210 time(s)
Russian Federation


ЦИТАТА(DeathCoveR @ Sep 11 2017, 21:58:46) *
Тот самый случай,когда видишь картинку альбома и сразу все понятно.

Вот-вот! Всё на шару! (IMG:style_emoticons/default/normal_Homerdisgust3.png)
Вернуться к началу страницы
  Insert nick Quick quote
+Цитировать сообщение
post Sep 11 2017, 20:25:53
Post #5
BAN
RO till
Feb 24 2018, 11:16:59



ЦИТАТА(DeathCoveR @ 11th September 2017 - 21:58:46) *
R. Van Delden Bass
A. van Delden Drums
M. Van Delden Guitars, Vocals

Папа на басу, мама на драмах, сыночек вокалит, а дочка моет посуду.


Thanks:
Вернуться к началу страницы
  Insert nick Quick quote
+Цитировать сообщение
post Sep 11 2017, 20:33:27
Post #6

Тридцать лет на борту "Тяжёлого" крейсера
***********
Group: Металариец
Posts: 1,685
Releases: 0
From: Питер
On Forums: 10 years 8 months
Thanks: 354 time(s)
Russian Federation


"...influenced by bands like Type o Negative, the Cure, My Dying Bride"
по всей видимости, имеется ввиду, что музыканты пёрлись под эти группы и решили, чем они-то хуже...и записали кусок г-на
Вернуться к началу страницы
  Insert nick Quick quote
+Цитировать сообщение
post Sep 12 2017, 12:36:03
Post #7

Шесть Литров
******
Group: Металариец
Posts: 527
Releases: 11
On Forums: 10 years 5 months
Thanks: 208 time(s)
Unknown


судя по архивам, все в группе мужского пола, современная нидерландская семья по ходу.
Вернуться к началу страницы
  Insert nick Quick quote
+Цитировать сообщение
post Sep 12 2017, 14:27:54
Post #8

Время Мары
**************
Group: Металариец
Posts: 2,825
Releases: 338
From: Харьков
On Forums: 8 years 8 months
Thanks: 6467 time(s)
Ukraine


Материал просто отвратный (IMG:style_emoticons/default/22.gif)
Вернуться к началу страницы
  Insert nick Quick quote
+Цитировать сообщение

ОтветитьСоздать новую тему
1 User(s) are reading this topic (1 Guests and 0 Anonymous Users)
0 Members:

 



- Lo-Fi Version Support form
Copyrights and abuse reports form
Time is now: 23rd February 2018 - 21:04:58