Welcome Guest ( Log In | Register )

 
Reply to this topicStart new topic
> Neus - 2000-5 (1995), Thrash/Groove/Industrial Metal
post Sep 11 2017, 09:34:36
Post #1
BAN
Banned till
Jun 28 2018, 15:53:36



(IMG:https://metalarea.org/images/audiocovers/2017_Sep/acov_tid294450_thumb.png)

*Artist: Neus
*Album: 2000-5
*Year: 1995
*Genre: Thrash/Groove/Industrial Metal
*Country: Colombia (IMG:https://metalarea.org/forum/style_images/flags/Colombia.png)
*Format: mp3@CBR320kbps
*Size: 170MB

Tracklist:
01. Quien Crees Que Eres 05:58
02. Esta Vez Llego El Final 03:11
03. 10000 Dias 06:27
04. Quiero Sexarte 06:54
05. Bajo Mundo 05:18
06. Oceano 03:01
07. Mururoa 03:14
08. Neus II 05:28
09. Niebla 06:27
10. Utopia 07:34
******************************
Total playing time: 53:32

Technical info
(IMG:https://metalarea.org/images/spectrogram/2017_Sep/58b4675b3228327c55e01214b17fa3ca.png)
Input File: Neus - Mururoa.mp3
Channels : 2
Sample Rate : 44100
Precision : 16-bit
Duration : 00:03:15.21 = 8608541 samples = 14640.4 CDDA sectors
File Size : 7.81M
Bit Rate : 320k
Sample Encoding: MPEG audio (layer I, II or III)



Register


Go to the top of the page
  Insert nick Quick quote
+Quote Post

Reply to this topicStart new topic
1 User(s) are reading this topic (1 Guests and 0 Anonymous Users)
0 Members:

 



- Lo-Fi Version Support form
Copyrights and abuse reports form
Time is now: 21st June 2018 - 04:00:24