Welcome Guest ( Log In | Register )

> И неформату есть предел.

Рэп/хип-хоп/шансон/поп удаляются. Для них есть свои порталы.

> Here Lies Man - Here Lies Man (2017), Psychedelic/Stoner/Fuzz Rock/Afrobeat
post Sep 11 2017, 22:38:50
Post #1

Правь статус, ####!111
**************
Group: Металариец
Posts: 32,312
Releases: 486
On Forums: 9 years 2 weeks
Thanks: 24728 time(s)
Russian Federation


(IMG:http://metalarea.org/images/audiocovers/2017_Sep/acov_tid294470_thumb.jpg)

*Artist: Here Lies Man
*Album: Here Lies Man
*Year: 2017
*Genre: Psychedelic/Stoner/Fuzz Rock/Afrobeat
*Country: United States (IMG:http://metalarea.org/forum/style_images/flags/United%20States.png)
*Format: mp3@CBR320kbps
*Size: 92MB

Tracklist:
01. When I Come To 01:34
02. I Stand Alone 04:55
03. Eyes Of The Law 04:32
04. You Ain't Goin' Nowhere 04:11
05. Letting Go 04:10
06. So Far Away 06:08
07. Belt Of The Sun 03:22
08. Here Lies Man 05:02
09. Untitled 05:52
******************************
Total playing time: 39:46



Technical info
(IMG:http://metalarea.org/images/spectrogram/2017_Sep/29e2b63d9ac15e92c86c374d0fecd67a.png)
Input File: 01. When I Come To.mp3
Channels : 2
Sample Rate : 44100
Precision : 16-bit
Duration : 00:01:34.75 = 4178431 samples = 7106.18 CDDA sectors
File Size : 3.86M
Bit Rate : 326k
Sample Encoding: MPEG audio (layer I, II or III)
Comments :
Title=When I Come To
Artist=Here Lies Man
Album=Here Lies Man
Tracknumber=1
Year=2017
Genre=Psychedelic/Stoner/Fuzz Rock



Register


Go to the top of the page
  Insert nick Quick quote
+Quote Post
 
Start new topic
Replies (1 - 3)
post Sep 12 2017, 10:54:39
Post #2

Правь статус, ####!111
**************
Group: Металариец
Posts: 32,312
Releases: 486
On Forums: 9 years 2 weeks
Thanks: 24728 time(s)
Russian Federation


Еще одна замечательная команда данного подстиля: Goat - World Music (2012)
Go to the top of the page
  Insert nick Quick quote
+Quote Post
post Sep 12 2017, 12:47:23
Post #3

Правь статус, ####!111
**************
Group: Металариец
Posts: 32,312
Releases: 486
On Forums: 9 years 2 weeks
Thanks: 24728 time(s)
Russian Federation


Альбом на отлично, кстати. (IMG:style_emoticons/default/20.gif)
Go to the top of the page
  Insert nick Quick quote
+Quote Post
post Jun 20 2018, 05:48:24
Post #4

Group: Дух
Posts: 1
Releases: 0
On Forums: 11 months 3 weeks
Thanks: 0 time(s)
Unknown


anyone got the new one??
Go to the top of the page
  Insert nick Quick quote
+Quote Post

Reply to this topicStart new topic
1 User(s) are reading this topic (1 Guests and 0 Anonymous Users)
0 Members:

 



- Lo-Fi Version Support form
Copyrights and abuse reports form
Time is now: 23rd June 2018 - 11:24:09