Welcome Guest ( Log In | Register )

 
Reply to this topicStart new topic
> Gray Souvenirs - Solace Of The Broken [ep] (2017), Post-Black Metal/Shoegaze (D4)
post Sep 12 2017, 10:07:51
Post #1

Время Мары
**************
Group: Металариец
Posts: 2,894
Releases: 364
From: Харьков
On Forums: 9 years 1 week
Thanks: 6953 time(s)
Ukraine


(IMG:http://metalarea.org/images/audiocovers/2017_Sep/acov_tid294483_thumb.jpg)

*Artist: Gray Souvenirs
*Album: Solace Of The Broken [ep]
*Year: 2017
*Genre: Post-Black Metal/Shoegaze
*Country: Brazil (IMG:http://metalarea.org/forum/style_images/flags/Brazil.png)
*Format: mp3@CBR320kbps
*Size: 61MB

Tracklist:
1. The Great Fall
2. Saudade
3. Sun Dust
******************************
Total playing time: 26:48

Technical info
(IMG:http://metalarea.org/images/spectrogram/2017_Sep/e671284666c03eb0b6ef78a83f24d00f.png)
Input File: Gray Souvenirs - Solace Of The Broken - 01 The Great Fall.mp3
Channels : 2
Sample Rate : 44100
Precision : 16-bit
Duration : 00:10:18.51 = 27276291 samples = 46388.2 CDDA sectors
File Size : 24.8M
Bit Rate : 320k
Sample Encoding: MPEG audio (layer I, II or III)
Comments :
Title=The Great Fall
Artist=Gray Souvenirs
Album=Solace Of The Broken
Tracknumber=1
Year=2017



Register


Go to the top of the page
  Insert nick Quick quote
+Quote Post

Reply to this topicStart new topic
1 User(s) are reading this topic (1 Guests and 0 Anonymous Users)
0 Members:

 



- Lo-Fi Version Support form
Copyrights and abuse reports form
Time is now: 18th June 2018 - 06:46:16