Welcome Guest ( Log In | Register )

 
ОтветитьСоздать новую тему
> Unintelligible Laryngeal Phonation And Wordless Esophageal Speech - Cracking The Code [demo] (2017), Experimental Goregrind
post Sep 12 2017, 12:48:35
Post #1

Serial Uploader
Group Icon
Group: V.I.P
Posts: 31,423
Releases: 29758
From: Lithuania
On Forums: 9 years 8 months
Thanks: 341679 time(s)
Lithuania


(IMG:https://metalarea.org/images/audiocovers/2017_Sep/acov_tid294491_thumb.jpg)

*Artist: Unintelligible Laryngeal Phonation And Wordless Esophageal Speech
*Album: Cracking The Code [demo]
*Year: 2017
*Genre: Experimental Goregrind
*Country: United States (IMG:https://metalarea.org/forum/style_images/flags/United%20States.png)
*Format: mp3@CBR320kbps
*Size: 8MB

Tracklist:
01. Long Nails Down My Lungs 00:38
02. Phobia Of Air Getting Stuck In Your Lungs 01:27
03. Prom Night Skid Marks 00:41
04. Lower Half 00:15
05. Harmonizing 00:13
******************************
Total playing time: 3:14



Technical info
(IMG:https://metalarea.org/images/spectrogram/2017_Sep/0ba8f4ee1db748c8527177866f7c0905.png)
Input File: 03. Prom Night Skid Marks.mp3
Channels : 2
Sample Rate : 44100
Precision : 16-bit
Duration : 00:00:41.93 = 1849113 samples = 3144.75 CDDA sectors
File Size : 1.76M
Bit Rate : 335k
Sample Encoding: MPEG audio (layer I, II or III)
Comments :
Title=Prom Night Skid Marks
Artist=Unintelligible Laryngeal Phonation And Wordless Esophageal Speech
Album="Cracking The Code" Demo 2017
Tracknumber=3
Year=2017



Register


Thanks:
(2) Rosen, varlam4,
Вернуться к началу страницы
  Insert nick Quick quote
+Цитировать сообщение

ОтветитьСоздать новую тему
1 User(s) are reading this topic (1 Guests and 0 Anonymous Users)
0 Members:

 



- Lo-Fi Version Support form
Copyrights and abuse reports form
Time is now: 21st February 2018 - 20:00:38