Welcome Guest ( Log In | Register )

> Throne Ov Extraterrestrials - Necrogenesis (2017), Brutal Death Metal
post Sep 12 2017, 13:37:30
Post #1

Аполітичний
**************
Group: Металариец
Posts: 5,103
Releases: 143
From: Тимчасово окупована територія - Юзівка
On Forums: 9 years 9 months
Thanks: 5319 time(s)
Ukraine


(IMG:https://metalarea.org/images/audiocovers/2017_Sep/acov_tid294495_thumb.jpg)

*Artist: Throne Ov Extraterrestrials
*Album: Necrogenesis
*Year: 2017
*Genre: Brutal Death Metal/Deathcore
*Country: Ukraine (IMG:https://metalarea.org/forum/style_images/flags/Ukraine.png)
*Format: mp3@CBR320kbps
*Size: 74MB

Tracklist:
1. Necrogenesis 01:24
2. Breakthrough From Depths Of The Abyss 02:48
3. Obelisk 02:50
4. The Interdimensional Rift 03:09
5. Dead Space 03:04
6. He Is Our Lord 02:25
7. The Cycle Of Parasitism [Feat. Artyom Shirman of Manifesting Obscenity and ArtificalDelirium of Biotomy] 03:11
8. Make Us Unified 03:38
9. Lord Of The Void [Feat. Alex Detestor of Bugs Live In My Bed] 05:04
10. Worship To Immortality 02:48
11. The Beginning Of The End 04:10
******************************
Total playing time: 34:31



Preview 3
Preview 4
Preview 5

Extended info



Technical info
(IMG:https://metalarea.org/images/spectrogram/2017_Sep/89f074f35366fa34a4b75ec15d4e0762.png)
Input File: 02 - Throne Ov Extraterrestrials - Breakthrough From Depths Of The Abyss.mp3
Channels : 2
Sample Rate : 44100
Precision : 16-bit
Duration : 00:02:48.07 = 7411931 samples = 12605.3 CDDA sectors
File Size : 6.73M
Bit Rate : 320k
Sample Encoding: MPEG audio (layer I, II or III)
Comments :
Title=Breakthrough From Depths Of The Abyss
Artist=Throne Ov Extraterrestrials
Album=Necrogenesis
Tracknumber=2
Year=2017
Genre=Brutal Deathcore



Register


Go to the top of the page
  Insert nick Quick quote
+Quote Post
 
Start new topic
Replies (1 - 1)
post Sep 12 2017, 18:03:05
Post #2

Group: Подсевший
Posts: 32
Releases: 0
On Forums: 3 years 9 months
Thanks: 19 time(s)
Unknown


quote bandcamp "TOE is a three piece Atmospheric Brutal Deathcore internet project."


Thanks:
Go to the top of the page
  Insert nick Quick quote
+Quote Post

Reply to this topicStart new topic
1 User(s) are reading this topic (1 Guests and 0 Anonymous Users)
0 Members:

 



- Lo-Fi Version Support form
Copyrights and abuse reports form
Time is now: 20th June 2018 - 17:49:31