Welcome Guest ( Log In | Register )

 
ОтветитьСоздать новую тему
> Skull Grinder - Retribution Of Madness (2017), Thrash/Groove/Death Metal
post Sep 12 2017, 14:38:35
Post #1

Аполітичний
**************
Group: Металариец
Posts: 4,953
Releases: 143
From: Тимчасово окупована територія - Юзівка
On Forums: 9 years 6 months
Thanks: 5177 time(s)
Ukraine


(IMG:https://metalarea.org/images/audiocovers/2017_Sep/acov_tid294496_thumb.jpg)

*Artist: Skull Grinder
*Album: Retribution Of Madness
*Year: 2017
*Genre: Thrash/Groove/Death Metal
*Country: Ukraine (IMG:https://metalarea.org/forum/style_images/flags/Ukraine.png)
*Format: mp3@CBR320kbps
*Size: 54MB

Tracklist:
1. Retribution 01:05
2. Madness 03:02
3. Satisfy 02:04
4. Shadowmaker 02:57
5. Vermillion Fire (feat. Gelidos fr. Unholy Triumphant) 04:46
6. Murder for Existence 02:37
7. I-D3V1L 03:17
8. Ultimate Weapon 03:26
9. Mosh or die 03:16
10. Not this time 02:40
******************************
Total playing time: 29:10


Preview 2
Preview 3

Extended info



Technical info
(IMG:https://metalarea.org/images/spectrogram/2017_Sep/4803ca3fc0249b1182fce4865e79aa8f.png)
Input File: 01 - Skull Grinder - Retribution....mp3
Channels : 2
Sample Rate : 44100
Precision : 16-bit
Duration : 00:01:05.80 = 2901868 samples = 4935.15 CDDA sectors
File Size : 2.63M
Bit Rate : 320k
Sample Encoding: MPEG audio (layer I, II or III)



Register


Вернуться к началу страницы
  Insert nick Quick quote
+Цитировать сообщение

ОтветитьСоздать новую тему
1 User(s) are reading this topic (1 Guests and 0 Anonymous Users)
0 Members:

 



- Lo-Fi Version Support form
Copyrights and abuse reports form
Time is now: 21st February 2018 - 19:58:02