Welcome Guest ( Log In | Register )

> Innermoon - Cloud Walkers (2017), Melodic Death Metal/Metalcore
post Sep 12 2017, 14:42:05
Post #1

MDM-Thrash Metal
**************
Group: Металариец
Posts: 7,061
Releases: 412
From: Одесса
On Forums: 11 years 1 month
Thanks: 13448 time(s)
Ukraine


(IMG:http://metalarea.org/images/audiocovers/2017_Sep/acov_tid294497_thumb.jpg)

*Artist: Innermoon
*Album: Cloud Walkers
*Year: 2017
*Genre: Melodic Death Metal/Metalcore
*Country: France (IMG:http://metalarea.org/forum/style_images/flags/France.png)
*Format: mp3@CBR320kbps
*Size: 102MB

Tracklist:
1. Sleeping's End 01:25
2. Harmony 07:50
3. Children of the Moon 05:33
4. From Nothing 01:29
5. Pride 05:44
6. Will to Live 04:29
7. Fallen 08:26
8. The End 03:43
******************************
Total playing time: 38:39

(IMG:http://metalarea.org/images/youtube.png)


Technical info
(IMG:http://metalarea.org/images/spectrogram/2017_Sep/a4916809fda03a66b34792e8d4876e54.png)
Input File: Innermoon - Cloud Walkers - 02 Harmony.mp3
Channels : 2
Sample Rate : 44100
Precision : 16-bit
Duration : 00:07:50.28 = 20739216 samples = 35270.8 CDDA sectors
File Size : 18.9M
Bit Rate : 322k
Sample Encoding: MPEG audio (layer I, II or III)
Comments :
Title=Harmony
Artist=Innermoon
Album=Cloud Walkers
Tracknumber=02
Year=2017



Register


Go to the top of the page
  Insert nick Quick quote
+Quote Post
 
Start new topic
Replies (1 - 1)
post Sep 15 2017, 07:47:54
Post #2

Ъ
**************
Group: Металариец
Posts: 9,172
Releases: 9
On Forums: 9 years 8 months
Thanks: 1752 time(s)
Sweden


Третьесорт, на раз послушать - норм.
Go to the top of the page
  Insert nick Quick quote
+Quote Post

Reply to this topicStart new topic
1 User(s) are reading this topic (1 Guests and 0 Anonymous Users)
0 Members:

 



- Lo-Fi Version Support form
Copyrights and abuse reports form
Time is now: 22nd September 2018 - 23:38:51