Welcome Guest ( Log In | Register )

> Biesy - Noc Lekkich Obyczajów (2017), Black Metal
post Sep 12 2017, 15:16:38
Post #1

Маньяк
**********
Group: Металариец
Posts: 1,261
Releases: 968
From: Prešov
On Forums: 4 years 2 months
Thanks: 22563 time(s)
Slovakia


(IMG:http://metalarea.org/images/audiocovers/2017_Sep/acov_tid294498_thumb.jpg)

*Artist: Biesy
*Album: Noc Lekkich Obyczajów
*Year: 2017
*Genre: Black Metal
*Country: Poland (IMG:http://metalarea.org/forum/style_images/flags/Poland.png)
*Format: mp3@CBR320kbps
*Size: 97MB

Tracklist:
1. Każdego dnia 05:08
2. W krew 06:37
3. Powroty 07:06
4. Czerń nas prosi 03:50
5. Rzucony w przestrzeń 11:29
6. Noc lekkich obyczajów 07:59
******************************
Total playing time: 42:09



Technical info
(IMG:http://metalarea.org/images/spectrogram/2017_Sep/b439d07803ad02c3752a1239bfe83618.png)
Input File: 02. W krew.mp3
Channels : 2
Sample Rate : 44100
Precision : 16-bit
Duration : 00:06:38.07 = 17554799 samples = 29855.1 CDDA sectors
File Size : 16.0M
Bit Rate : 322k
Sample Encoding: MPEG audio (layer I, II or III)
Comments :
Title=W krew
Artist=Biesy
Album=Noc lekkich obyczajГіw
Tracknumber=02/06
Year=2017
Genre=Black Metal



Register


Go to the top of the page
  Insert nick Quick quote
+Quote Post
 
Start new topic
Replies (1 - 6)
post Sep 12 2017, 17:44:39
Post #2

стазис эпидерсис
***********
Group: Металариец
Posts: 1,788
Releases: 0
On Forums: 2 years 4 months
Thanks: 1096 time(s)
Unknown


наслушались крайнего кригмашин и выдали массу клишеобразного.
Go to the top of the page
  Insert nick Quick quote
+Quote Post
post Sep 12 2017, 18:14:44
Post #3

Аннигилятор пивА
Group Icon
Group: V.I.P
Posts: 46,815
Releases: 14061
From: Koenigsberg - TILZIT
On Forums: 12 years 3 weeks
Thanks: 311983 time(s)
Russian Federation


сладжем так отдает заметно
альтернатив
Register


Go to the top of the page
  Insert nick Quick quote
+Quote Post
post Sep 12 2017, 19:03:42
Post #4
BAN
Banned till
Jul 3 2018, 21:45:04



кригсмашин ок, сладж не ок


Thanks:
(1) serg1349,
Go to the top of the page
  Insert nick Quick quote
+Quote Post
post Sep 12 2017, 20:04:38
Post #5

Пять Литров
*****
Group: Металариец
Posts: 488
Releases: 8
On Forums: 6 years 10 months
Thanks: 284 time(s)
Russian Federation


А по-моему, от альбома за версту тащит Дэтспелл Омегой образца прошлого полноформата.
И это один из тех нечастых случаев, когда это, в общем, и неплохо.
Go to the top of the page
  Insert nick Quick quote
+Quote Post
post Sep 12 2017, 20:27:33
Post #6

Девять Литров
*********
Group: Металариец
Posts: 963
Releases: 0
On Forums: 9 years 3 months
Thanks: 330 time(s)
Antarctica


Звучание от Ulcerate, а материал банален, как по мне.
Go to the top of the page
  Insert nick Quick quote
+Quote Post
post Dec 19 2017, 21:40:41
Post #7

antithesis
**************
Group: Металариец
Posts: 2,169
Releases: 27
From: VRN
On Forums: 8 years 4 weeks
Thanks: 1128 time(s)
Russian Federation


неубедительно. видимо, чтобы следовать за DSO маловато делать морду кирпичом и диссонансовато пиликать под барабанное молотилово, изредка останавливаясь поатмосферить.
первый трек намекал на куда более достойное продолжение.
Go to the top of the page
  Insert nick Quick quote
+Quote Post

Reply to this topicStart new topic
1 User(s) are reading this topic (1 Guests and 0 Anonymous Users)
0 Members:

 



- Lo-Fi Version Support form
Copyrights and abuse reports form
Time is now: 20th June 2018 - 17:49:59