Welcome Guest ( Log In | Register )

> И неформату есть предел.

Рэп/хип-хоп/шансон/поп удаляются. Для них есть свои порталы.

 
ОтветитьСоздать новую тему
> Grimrik - Eisreich (2014), Dungeon Synth/Dark Ambient
post Sep 12 2017, 15:20:46
Post #1

Angel Eviscerator
**************
Group: Металариец
Posts: 4,007
Releases: 2684
From: 55°35’N 38°08’E
On Forums: 9 years 7 months
Thanks: 51354 time(s)
Russian Federation


(IMG:http://metalarea.org/images/audiocovers/2017_Sep/acov_tid294499_thumb.jpg)

*Artist: Grimrik
*Album: Eisreich
*Year: 2014
*Genre: Dungeon Synth/Dark Ambient
*Country: Germany (IMG:http://metalarea.org/forum/style_images/flags/Germany.png)
*Format: mp3@CBR320kbps
*Size: 119MB

Tracklist:
1. Der astrale Ursprung (Teil I) 03:50
2. Der astrale Ursprung (Teil II) 07:08
3. Polare Transmissionen 06:48
4. Säule des Ewiglichts 07:38
5. Schwingungen ätherischen Wissens 08:11
6. <> 02:26
7. Leere (Burzum - Tomhet cover) 14:02
******************************
Total playing time: 50:03



Extended info
Grimrik - Everything
(Dysterwald, Skurgoth, Arath, Eternäl Fröst, Nasgûl)

FLAC-RIP + scans


Technical info
(IMG:http://metalarea.org/images/spectrogram/2017_Sep/39b900a0c74c95ce1154c359dada925a.png)
Input File: 01 Der astrale Ursprung (Teil I).mp3
Channels : 2
Sample Rate : 44100
Precision : 16-bit
Duration : 00:03:52.62 = 10258674 samples = 17446.7 CDDA sectors
File Size : 9.30M
Bit Rate : 320k
Sample Encoding: MPEG audio (layer I, II or III)
Comments :
Title=Der Astrale Ursprung (Teil I)
Artist=Grimrik
Album=Eisreich
Tracknumber=1
Year=2014
Genre=Ambient



Register


Thanks:
Вернуться к началу страницы
  Insert nick Quick quote
+Цитировать сообщение

ОтветитьСоздать новую тему
1 User(s) are reading this topic (1 Guests and 0 Anonymous Users)
0 Members:

 



- Lo-Fi Version Support form
Copyrights and abuse reports form
Time is now: 20th February 2018 - 12:54:27