Welcome Guest ( Log In | Register )

> Gorepest - The Aeon Of Horus [ep] (2017), Black Metal
post Sep 12 2017, 15:28:25
Post #1

Аннигилятор пивА
Group Icon
Group: V.I.P
Posts: 45,751
Releases: 13654
From: Koenigsberg - TILZIT
On Forums: 11 years 8 months
Thanks: 302238 time(s)
Russian Federation


(IMG:https://metalarea.org/images/audiocovers/2017_Sep/acov_tid294501_thumb.jpg)

*Artist: Gorepest
*Album: The Aeon Of Horus [ep]
*Year: 2017
*Genre: Black Metal
*Country: Italy (IMG:https://metalarea.org/forum/style_images/flags/Italy.png)
*Format: mp3@CBR320kbps
*Size: 78MB

Tracklist:
01. The Aeon of Horus
02. Torn the Cross in the Blood
03. Winterspell Rites
04. To Grind Priests
05. The Autopsy of God
06. Slaves of Space and Time
07. Enduring the Eternal Molestation of Posers
08. Crucifucked
09. Summoning the Throne of Self
******************************
Total playing time: 34:25




Extended info


Technical info
(IMG:https://metalarea.org/images/spectrogram/2017_Sep/158bd6002db632e656633cd49ca8587c.png)
Input File: 02. Torn the Cross in the Blood.mp3
Channels : 2
Sample Rate : 44100
Precision : 16-bit
Duration : 00:02:12.69 = 5851673 samples = 9951.82 CDDA sectors
File Size : 5.34M
Bit Rate : 322k
Sample Encoding: MPEG audio (layer I, II or III)
Comments :
Title=Torn the Cross in the Blood
Artist=Gorepest
Album=The Aeon of Horus
Tracknumber=2/9
Year=2017



Register


Вернуться к началу страницы
  Insert nick Quick quote
+Цитировать сообщение
 
Создать новую тему
Replies (1 - 3)
post Sep 12 2017, 17:18:06
Post #2

Аннигилятор пивА
Group Icon
Group: V.I.P
Posts: 45,751
Releases: 13654
From: Koenigsberg - TILZIT
On Forums: 11 years 8 months
Thanks: 302238 time(s)
Russian Federation


на архивах заявлено 6 трэков, на бендкампе 9, не знаю почему
Вернуться к началу страницы
  Insert nick Quick quote
+Цитировать сообщение
post Sep 12 2017, 17:19:48
Post #3

Попсовик от брутала
**************
Group: Металариец
Posts: 5,599
Releases: 51
From: Минск
On Forums: 9 years 2 months
Thanks: 4444 time(s)
Belarus


За такие названия надо расстреливать.


Thanks:
(1) RUSP73,
Вернуться к началу страницы
  Insert nick Quick quote
+Цитировать сообщение
post Sep 14 2017, 11:18:53
Post #4

MDM-Thrash Metal
**************
Group: Металариец
Posts: 6,169
Releases: 401
From: Одесса
On Forums: 10 years 6 months
Thanks: 11709 time(s)
Ukraine


Register
Вернуться к началу страницы
  Insert nick Quick quote
+Цитировать сообщение

ОтветитьСоздать новую тему
1 User(s) are reading this topic (1 Guests and 0 Anonymous Users)
0 Members:

 



- Lo-Fi Version Support form
Copyrights and abuse reports form
Time is now: 21st February 2018 - 20:00:22