Welcome Guest ( Log In | Register )

> My Useless Life - My Useless Life (2017), Depressive Black Metal (D4)
post Sep 12 2017, 16:32:32
Post #1

Angel Eviscerator
**************
Group: Металариец
Posts: 4,008
Releases: 2684
From: 55°35’N 38°08’E
On Forums: 9 years 7 months
Thanks: 51377 time(s)
Russian Federation


(IMG:http://metalarea.org/images/audiocovers/2017_Sep/acov_tid294502_thumb.jpg)

*Artist: My Useless Life
*Album: My Useless Life
*Year: 2017
*Genre: Depressive Black Metal
*Country: United States (IMG:http://metalarea.org/forum/style_images/flags/United%20States.png)
*Format: mp3@CBR320kbps
*Size: 83MB

Tracklist:
1.Melancholic Overdose 06:13
2.Point of No Return 06:10
3.Grey Mo(u)rning 07:13
4.In the Eyes of Despair 05:09
5.Død II 03:14
6.I've Had Enough 06:40
******************************
Total playing time: 34:39


(IMG:http://metalarea.org/images/youtube.png)


Technical info
(IMG:http://metalarea.org/images/spectrogram/2017_Sep/fd2f5b573a697174df3b66cc0ec6b35f.png)
Input File: 01 Melancholic Overdose.mp3
Channels : 2
Sample Rate : 44100
Precision : 16-bit
Duration : 00:06:14.03 = 16494723 samples = 28052.2 CDDA sectors
File Size : 15.1M
Bit Rate : 323k
Sample Encoding: MPEG audio (layer I, II or III)
Comments :
Title=Melancholic Overdose
Artist=My Useless Life
Album=My Useless Life
Tracknumber=1
Year=2017



Register

Register


Вернуться к началу страницы
  Insert nick Quick quote
+Цитировать сообщение
 
Создать новую тему
Replies (1 - 3)
post Sep 12 2017, 17:59:26
Post #2

Пять Литров
*****
Group: Металариец
Posts: 479
Releases: 0
From: Черкассы
On Forums: 6 years 2 months
Thanks: 67 time(s)
Ukraine


ОТЛИЧНЫЙ Atmospheric Post-Black Metal
Cпасиб что не только на Яндекс (IMG:style_emoticons/default/smile1.gif)
Вернуться к началу страницы
  Insert nick Quick quote
+Цитировать сообщение
post Sep 12 2017, 20:11:44
Post #3
BAN
RO till
Feb 24 2018, 11:16:59



(IMG:style_emoticons/default/21.gif)
Вернуться к началу страницы
  Insert nick Quick quote
+Цитировать сообщение
post Sep 13 2017, 13:12:31
Post #4

Восемь Литров
********
Group: Металариец
Posts: 834
Releases: 0
From: Dnipro
On Forums: 9 years 7 months
Thanks: 208 time(s)
Ukraine


ЦИТАТА(krotovich @ Sep 12 2017, 19:59:26) *
ОТЛИЧНЫЙ Atmospheric Post-Black Metal
Cпасиб что не только на Яндекс (IMG:style_emoticons/default/smile1.gif)

Больше атмосферик с депрессухой, поста не заметил, альбом зачетный (IMG:style_emoticons/default/20.gif)

ЦИТАТА(mittal @ Sep 12 2017, 22:11:44) *

(IMG:style_emoticons/default/23.gif)


Thanks:
(1) krotovich,
Вернуться к началу страницы
  Insert nick Quick quote
+Цитировать сообщение

ОтветитьСоздать новую тему
1 User(s) are reading this topic (1 Guests and 0 Anonymous Users)
0 Members:

 



- Lo-Fi Version Support form
Copyrights and abuse reports form
Time is now: 21st February 2018 - 20:01:41