Welcome Guest ( Log In | Register )

> Hatenemy - Reign In Terror (2017), Thrash Metal
post Sep 12 2017, 17:59:17
Post #1

Правь статус, ####!111
**************
Group: Металариец
Posts: 12,202
Releases: 8814
From: Г.Харьков
On Forums: 5 years 9 months
Thanks: 141122 time(s)
Unknown


(IMG:https://metalarea.org/images/audiocovers/2017_Sep/acov_tid294506_thumb.jpg)

*Artist: Hatenemy
*Album: Reign In Terror
*Year: 2017
*Genre: Thrash Metal
*Country: Indonesia (IMG:https://metalarea.org/forum/style_images/flags/Indonesia.png)
*Format: mp3@CBR320kbps
*Size: 78MB

Tracklist:
1. The Great Dictator Speech 02:55
2. Zyklon B 03:54
3. The Evil Empire 03:50
4. Night of the Long Knives 03:23
5. Alcohol Say Hello 03:36
6. Learn a Violence 02:15
7. Critical Government 03:39
8. The Citizen Liar 03:39
9. Hate Campaign 03:06
10. Kingdom of Rabiesm 03:49
******************************
Total playing time: 34:06




Extended info


Technical info
(IMG:https://metalarea.org/images/spectrogram/2017_Sep/19e7419ea1675614a700767143adc88e.png)
Input File: 02 - Zyklon B.mp3
Channels : 2
Sample Rate : 44100
Precision : 16-bit
Duration : 00:03:47.53 = 10034161 samples = 17064.9 CDDA sectors
File Size : 9.10M
Bit Rate : 320k
Sample Encoding: MPEG audio (layer I, II or III)
Comments :
Title=Zyklon B
Artist=Hatenemy
Album=Reign In Terror
Tracknumber=2
Year=2017
Genre=Thrash Metal



Register


Вернуться к началу страницы
  Insert nick Quick quote
+Цитировать сообщение
 
Создать новую тему
Replies (1 - 1)
post Sep 12 2017, 18:38:23
Post #2

Правь статус, ####!111
**************
Group: Металариец
Posts: 12,202
Releases: 8814
From: Г.Харьков
On Forums: 5 years 9 months
Thanks: 141122 time(s)
Unknown


Register


Вернуться к началу страницы
  Insert nick Quick quote
+Цитировать сообщение

ОтветитьСоздать новую тему
1 User(s) are reading this topic (1 Guests and 0 Anonymous Users)
0 Members:

 



- Lo-Fi Version Support form
Copyrights and abuse reports form
Time is now: 21st February 2018 - 20:01:58