Welcome Guest ( Log In | Register )

 
ОтветитьСоздать новую тему
> Starcave - Demo I [demo] (2017), Black Metal
post Sep 12 2017, 18:31:43
Post #1

Маньяк
**********
Group: Металариец
Posts: 1,153
Releases: 886
From: Prešov
On Forums: 3 years 10 months
Thanks: 20360 time(s)
Slovakia


(IMG:http://metalarea.org/images/audiocovers/2017_Sep/acov_tid294507_thumb.jpg)

*Artist: Starcave
*Album: Demo I [demo]
*Year: 2017
*Genre: Black Metal
*Country: Finland (IMG:http://metalarea.org/forum/style_images/flags/Finland.png)
*Format: mp3@CBR320kbps
*Size: 57MB

Tracklist:
1. One Star Beyond the Flames pt. 1 04:02
2. Wound of Manifestation 06:56
3. Potency 03:44
4. Star Travels 09:41
******************************
Total playing time: 24:23

Extended info
Kuunpalvelus


Technical info
(IMG:http://metalarea.org/images/spectrogram/2017_Sep/073e25f40fd14d12ac2da2f9175445d0.png)
Input File: 01. One Star Beyond the Flames pt. 1.mp3
Channels : 2
Sample Rate : 44100
Precision : 16-bit
Duration : 00:04:02.78 = 10706642 samples = 18208.6 CDDA sectors
File Size : 9.71M
Bit Rate : 320k
Sample Encoding: MPEG audio (layer I, II or III)
Comments :
Title=One Star Beyond the Flames pt. 1
Artist=Starcave
Album=Demo 1
Tracknumber=01/04
Year=2017
Genre=Black Metal



Register


Вернуться к началу страницы
  Insert nick Quick quote
+Цитировать сообщение

ОтветитьСоздать новую тему
1 User(s) are reading this topic (1 Guests and 0 Anonymous Users)
0 Members:

 



- Lo-Fi Version Support form
Copyrights and abuse reports form
Time is now: 21st February 2018 - 19:58:55