Welcome Guest ( Log In | Register )

> Shrine Of Orpheus - Λυκόφως [ep] (2017), Black Metal
post Sep 12 2017, 18:54:47
Post #1

Маньяк
**********
Group: Металариец
Posts: 1,260
Releases: 967
From: Prešov
On Forums: 4 years 2 months
Thanks: 22555 time(s)
Slovakia


(IMG:http://metalarea.org/images/audiocovers/2017_Sep/acov_tid294508_thumb.jpg)

*Artist: Shrine Of Orpheus
*Album: Λυκόφως [ep]
*Year: 2017
*Genre: Black Metal
*Country: Greece (IMG:http://metalarea.org/forum/style_images/flags/Greece.png)
*Format: mp3@CBR320kbps
*Size: 51MB

Tracklist:
A1. Belial Ascending (The Dance Of The Shadows) 4:33
A2. In Shrines Of Unearthly Piety 6:09
A3. Risen To Godhood Unbound 7:52
A4. Λυκόφως 1:33
******************************
Total playing time: 20:07

Extended info
III Damnation Productions ‎– CURSE 031-MC
Tape-rip + Scans


Technical info
(IMG:http://metalarea.org/images/spectrogram/2017_Sep/8211071fd7923f00936fbac47b9f7076.png)
Input File: A2. In Shrines Of Unearthly Piety.mp3
Channels : 2
Sample Rate : 48000
Precision : 16-bit
Duration : 00:05:57.07 = 17139600 samples ~ 26780.6 CDDA sectors
File Size : 14.4M
Bit Rate : 323k
Sample Encoding: MPEG audio (layer I, II or III)
Comments :
Title=In Shrines Of Unearthly Piety
Artist=Shrine Of Orpheus
Album=О›П…ОєПЊП†П‰П‚
Tracknumber=02/04
Year=2017
Genre=Black Metal



Register


Go to the top of the page
  Insert nick Quick quote
+Quote Post
 
Start new topic
Replies (1 - 5)
post Sep 14 2017, 17:17:23
Post #2

Маньяк
**********
Group: Металариец
Posts: 1,481
Releases: 23
From: Spain
On Forums: 10 years 9 months
Thanks: 1117 time(s)
Spain


QUOTE


Thanks:
(1) vader9,
Go to the top of the page
  Insert nick Quick quote
+Quote Post
post Sep 14 2017, 18:00:43
Post #3

Пять Литров
*****
Group: Металариец
Posts: 453
Releases: 4
From: Москва
On Forums: 9 years 5 months
Thanks: 647 time(s)
Russian Federation


Очень и очень не плохо! Ничего нового они не наиграли, но, по крайней мере, намного лучше, чем все эти ахеронтасы, кавиры, ротинги и прочая шлабуда.
Последний раз из греков нравились только Некромантия.
Go to the top of the page
  Insert nick Quick quote
+Quote Post
post Sep 16 2017, 12:38:02
Post #4

стазис эпидерсис
***********
Group: Металариец
Posts: 1,785
Releases: 0
On Forums: 2 years 4 months
Thanks: 1096 time(s)
Unknown


лаконично и ёмко, хорошая атмосферная работа.
Go to the top of the page
  Insert nick Quick quote
+Quote Post
post Sep 21 2017, 06:49:17
Post #5

...Only Death Is Real...
**************
Group: Металариец
Posts: 2,626
Releases: 15
On Forums: 7 years 10 months
Thanks: 1615 time(s)
Russian Federation




Thanks:
(1) DarkHorde,
Go to the top of the page
  Insert nick Quick quote
+Quote Post
post Apr 22 2018, 22:54:58
Post #6

Четыре Литра
****
Group: Металариец
Posts: 322
Releases: 2
On Forums: 9 years 3 months
Thanks: 599 time(s)
Serbia


Anyone have CD rip?
Go to the top of the page
  Insert nick Quick quote
+Quote Post

Reply to this topicStart new topic
1 User(s) are reading this topic (1 Guests and 0 Anonymous Users)
0 Members:

 



- Lo-Fi Version Support form
Copyrights and abuse reports form
Time is now: 20th June 2018 - 12:33:09