Welcome Guest ( Log In | Register )

> И неформату есть предел.

Рэп/хип-хоп/шансон/поп удаляются. Для них есть свои порталы.

 
ОтветитьСоздать новую тему
> Melvins - Endless Residency [boxed set] (2011), Sludge/Grunge/Punk (D)
post Sep 12 2017, 18:58:09
Post #1

Четыре Литра
****
Group: Металариец
Posts: 378
Releases: 20
On Forums: 4 years 4 months
Thanks: 662 time(s)
Unknown


(IMG:http://metalarea.org/images/audiocovers/2017_Sep/acov_tid294510_thumb.jpg)

*Artist: Melvins
*Album: Endless Residency [boxed set]
*Year: 2011
*Genre: Sludge/Grunge/Punk
*Country: United States (IMG:http://metalarea.org/forum/style_images/flags/United%20States.png)
*Format: mp3@CBR320kbps
*Size: 561MB

Tracklist:
Colossus Of Destiny / Lysol / Eggnog LIVE:
01. Colossus Of Destiny 12:25
02. Eye Flys 8:22
03. Charmicarmicat 13:37
04. Hung Bunny / Roman Dog Bird 14:08
05. Hog Leg 3:07
06. Antitoxidote 1:58
07. Wispy 1:36
08. With Teeth 2:35
09. The Ballad Of Dwight Fry (Alice Cooper cover) 4:55
10. Sacrifice 12:29
Houdini LIVE:
01. Hag Me 7:58
02. Pearl Bomb 1:33
03. Hooch 2:25
04. Honey Bucket 2:28
05. Night Goat 9:05
06. Lizzy 5:15
07. Going Blind (Kiss cover) 4:13
08. Joan Of Arc 5:02
09. Set Me Straight 1:02
10. Deserted Cities Of The Heart (Cream cover) 1:36
11. Sky Pup 3:25
12. Teet 2:35
13. Copache 1:57
14. Spread Eagle Beagle 6:08
15. Gimmie Pizza 4:06
16. Star Spangled Banner 2:30
Bullhead LIVE:
01. Ligature 5:17
02. It's Shoved 2:21
03. If I Had An Exorcism 3:49
04. Zodiac 3:37
05. Anaconda 3:02
06. Euthanasia 3:34
07. Cow 4:05
08. Your Blessened 5:02
09. Boris 9:23
10. Okie From Muskogee (Merle Haggard cover) 6:22
Stoner Witch LIVE:
01. Lividity 17:41
02. Skweetis 0:54
03. Sweet Willy Rollbar 1:31
04. Revolve 4:07
05. June Bug 1:49
06. Roadbull 3:11
07. Goose Freight Train 5:11
08. Queen 2:46
09. At The Stake 8:30
10. Magic Pig Detective 3:59
11. Shevil 6:22
12. Goodnight Sweetheart 3:05
******************************
Total playing time: 4:02:08

Extended info
Endless Residency 2011 was first released on May 13, 2011 and sold on the Endless Residency tour of the U.S.


Technical info
(IMG:http://metalarea.org/images/spectrogram/2017_Sep/5367e783a801da9599211417b63bb255.png)
Input File: 03 - Hooch.mp3
Channels : 2
Sample Rate : 44100
Precision : 16-bit
Duration : 00:02:25.46 = 6414918 samples = 10909.7 CDDA sectors
File Size : 5.98M
Bit Rate : 329k
Sample Encoding: MPEG audio (layer I, II or III)
Comments :
Title=Hooch
Artist=Melvins
Album=Endless Residency disc 2
Tracknumber=3
Year=2011
Genre=Stoner / Sludge Metal



Register


Вернуться к началу страницы
  Insert nick Quick quote
+Цитировать сообщение

ОтветитьСоздать новую тему
1 User(s) are reading this topic (1 Guests and 0 Anonymous Users)
0 Members:

 



- Lo-Fi Version Support form
Copyrights and abuse reports form
Time is now: 20th February 2018 - 12:54:18