Welcome Guest ( Log In | Register )

 
Reply to this topicStart new topic
> Wømb & Milumet - Our Souls Prayeth For His Black Salvation [split] (2017), Raw Black Metal | Raw Black Metal (D5)
post Sep 12 2017, 19:03:58
Post #1

Маньяк
**********
Group: Металариец
Posts: 1,261
Releases: 968
From: Prešov
On Forums: 4 years 2 months
Thanks: 22563 time(s)
Slovakia


(IMG:http://metalarea.org/images/audiocovers/2017_Sep/acov_tid294512_thumb.jpg)

*Artist: Wømb & Milumet
*Album: Our Souls Prayeth For His Black Salvation [split]
*Year: 2017
*Genre: Raw Black Metal | Raw Black Metal
*Country: Portugal (IMG:http://metalarea.org/forum/style_images/flags/Portugal.png) | United States (IMG:http://metalarea.org/forum/style_images/flags/United%20States.png)
*Format: mp3@CBR320kbps
*Size: 59MB

Tracklist:
Wømb:
A1. Pray For The Atom Bomb
A2. Wisdom Of Baptism
A3. Satan Speaks Her Name
A4. Baptism Of Wisdom
Milumet:
B1. Imperial Nausea
B2. Concrete Delusion
B3. Paroxysmal
B4. Anxiety Of Empire
******************************
Total playing time: 20:01

Extended info
Purodium ‎Records – PRK027
Tape-rip + Scans


Technical info
(IMG:http://metalarea.org/images/spectrogram/2017_Sep/10048f5004ce5dc7512bb8b6c55a81aa.png)
Input File: B2. Milumet - Concrete Delusion.mp3
Channels : 2
Sample Rate : 48000
Precision : 16-bit
Duration : 00:01:59.19 = 5720976 samples ~ 8939.02 CDDA sectors
File Size : 5.02M
Bit Rate : 337k
Sample Encoding: MPEG audio (layer I, II or III)
Comments :
Title=Concrete Delusion
Artist=Milumet
Album=Our Souls Prayeth for His Black Salvation
Tracknumber=06/08
Year=2017
Genre=Black Metal



Register


Go to the top of the page
  Insert nick Quick quote
+Quote Post

Reply to this topicStart new topic
1 User(s) are reading this topic (1 Guests and 0 Anonymous Users)
0 Members:

 



- Lo-Fi Version Support form
Copyrights and abuse reports form
Time is now: 20th June 2018 - 17:48:21