Welcome Guest ( Log In | Register )

> Sosra - In Distress (2017), Thrash/Heavy Metal
post Sep 12 2017, 19:30:29
Post #1

Правь статус, ####!111
**************
Group: Металариец
Posts: 13,362
Releases: 9421
From: Г.Харьков
On Forums: 6 years 1 month
Thanks: 153675 time(s)
Unknown


(IMG:https://metalarea.org/images/audiocovers/2017_Sep/acov_tid294514_thumb.jpg)

*Artist: Sosra
*Album: In Distress
*Year: 2017
*Genre: Thrash/Heavy Metal
*Country: United States (IMG:https://metalarea.org/forum/style_images/flags/United%20States.png)
*Format: mp3@CBR320kbps
*Size: 101MB

Tracklist:
1. Alive! 04:57
2. Warhead 03:41
3. Walking with the Dead 03:15
4. Empty Shell 05:35
5. Transparency 03:41
6. Shouldn't Be 03:42
7. Bring 'Em Down 03:51
8. Battle Scars 04:48
9. Rebel Nation 03:31
10. Iron Horses 04:17
11. Institution Green 03:15
12. Parasite 03:30
******************************
Total playing time: 48:03




Technical info
(IMG:https://metalarea.org/images/spectrogram/2017_Sep/e4d9e3f6a480080d5f009534bba8cc0b.png)
Input File: 02. Warhead.mp3
Channels : 2
Sample Rate : 44100
Precision : 16-bit
Duration : 00:03:41.59 = 9772163 samples = 16619.3 CDDA sectors
File Size : 8.96M
Bit Rate : 324k
Sample Encoding: MPEG audio (layer I, II or III)
Comments :
Title=Warhead
Artist=Sosra
Album=In Distress
Tracknumber=2
Genre=Метал
Discnumber=1



Register


Go to the top of the page
  Insert nick Quick quote
+Quote Post
 
Start new topic
Replies (1 - 2)
post Sep 12 2017, 20:49:46
Post #2

Пять Литров
*****
Group: Металариец
Posts: 467
Releases: 0
On Forums: 8 years 11 months
Thanks: 99 time(s)
Ukraine


в Американском стиле трэш-хэви!!
Go to the top of the page
  Insert nick Quick quote
+Quote Post
post Nov 12 2017, 01:00:45
Post #3

Мегаманьяк
***********
Group: Металариец
Posts: 1,965
Releases: 0
On Forums: 3 years 1 month
Thanks: 1721 time(s)
Russian Federation


Из сети, 320
Register
Go to the top of the page
  Insert nick Quick quote
+Quote Post

Reply to this topicStart new topic
1 User(s) are reading this topic (1 Guests and 0 Anonymous Users)
0 Members:

 



- Lo-Fi Version Support form
Copyrights and abuse reports form
Time is now: 20th June 2018 - 17:47:41