Welcome Guest ( Log In | Register )

 
Reply to this topicStart new topic
> Czarnobog - Eastern Barbarian Cult (2017), Raw Black Metal
post Sep 12 2017, 19:50:07
Post #1

Маньяк
**********
Group: Металариец
Posts: 1,377
Releases: 1071
From: Prešov
On Forums: 4 years 5 months
Thanks: 24886 time(s)
Slovakia


(IMG:http://metalarea.org/images/audiocovers/2017_Sep/acov_tid294517_thumb.jpg)

*Artist: Czarnobog
*Album: Eastern Barbarian Cult
*Year: 2017
*Genre: Raw Black Metal
*Country: Germany (IMG:http://metalarea.org/forum/style_images/flags/Germany.png)
*Format: mp3@CBR320kbps
*Size: 121MB

Tracklist:
1. Ancient Scrolls of Stardust
2. Temple of Dead Sun
3. I Summon the Ravens of Lunar Shadows
4. Scythian Black Winter
5. Through the Epic Forest of Hyperborea
6. Eastern Barbarian Cult
7. Guardians of Slavonic Moon Shrine
8. Untitled Track
******************************
Total playing time: 48:55



Extended info
Dark Ritual - D.R. 24
Tape limited to 100 copies

Tape-rip + Scans
KVLT!


Technical info
(IMG:http://metalarea.org/images/spectrogram/2017_Sep/f31064a3a2cc23860f419190ed09365d.png)
Input File: B2. Eastern Barbarian Cult.mp3
Channels : 2
Sample Rate : 48000
Precision : 16-bit
Duration : 00:06:14.04 = 17954064 samples ~ 28053.2 CDDA sectors
File Size : 15.2M
Bit Rate : 324k
Sample Encoding: MPEG audio (layer I, II or III)
Comments :
Title= Eastern Barbarian Cult
Artist=Czarnobog
Album=Eastern Barbarian Cult
Tracknumber=06/08
Year=2017
Genre=Black Metal



Register


Go to the top of the page
  Insert nick Quick quote
+Quote Post
post Sep 17 2017, 13:48:13
Post #2

\m/
Group Icon
Group: S-moderation team
Posts: 7,483
Releases: 19
From: Петропавловск-Камчатский
On Forums: 9 years 3 months
Thanks: 6773 time(s)
Russian Federation


По превью ваще круто! (IMG:style_emoticons/default/true_black.gif)
Go to the top of the page
  Insert nick Quick quote
+Quote Post
post Feb 25 2018, 14:42:57    Сейчас играет: Exhumed - Defenders of the Grave
Post #3

antithesis
**************
Group: Металариец
Posts: 2,309
Releases: 28
From: VRN
On Forums: 8 years 4 months
Thanks: 1207 time(s)
Russian Federation


лажа, как в игре, так и в записи.
неинтересный Raw в итоге.
Go to the top of the page
  Insert nick Quick quote
+Quote Post
post May 6 2018, 11:19:55
Post #4

Четыре Литра
****
Group: Металариец
Posts: 346
Releases: 0
On Forums: 2 years 2 months
Thanks: 21 time(s)
Unknown


What a pitty: Bad quality.
Go to the top of the page
  Insert nick Quick quote
+Quote Post

Reply to this topicStart new topic
1 User(s) are reading this topic (1 Guests and 0 Anonymous Users)
0 Members:

 



- Lo-Fi Version Support form
Copyrights and abuse reports form
Time is now: 23rd September 2018 - 08:14:58