Welcome Guest ( Log In | Register )

 
ОтветитьСоздать новую тему
> Czarnobog - Eastern Barbarian Cult (2017), Raw Black Metal
post Sep 12 2017, 19:50:07
Post #1

Маньяк
**********
Group: Металариец
Posts: 1,153
Releases: 886
From: Prešov
On Forums: 3 years 10 months
Thanks: 20334 time(s)
Slovakia


(IMG:http://metalarea.org/images/audiocovers/2017_Sep/acov_tid294517_thumb.jpg)

*Artist: Czarnobog
*Album: Eastern Barbarian Cult
*Year: 2017
*Genre: Raw Black Metal
*Country: Germany (IMG:http://metalarea.org/forum/style_images/flags/Germany.png)
*Format: mp3@CBR320kbps
*Size: 121MB

Tracklist:
1. Ancient Scrolls of Stardust
2. Temple of Dead Sun
3. I Summon the Ravens of Lunar Shadows
4. Scythian Black Winter
5. Through the Epic Forest of Hyperborea
6. Eastern Barbarian Cult
7. Guardians of Slavonic Moon Shrine
8. Untitled Track
******************************
Total playing time: 48:55



Extended info
Dark Ritual - D.R. 24
Tape limited to 100 copies

Tape-rip + Scans
KVLT!


Technical info
(IMG:http://metalarea.org/images/spectrogram/2017_Sep/f31064a3a2cc23860f419190ed09365d.png)
Input File: B2. Eastern Barbarian Cult.mp3
Channels : 2
Sample Rate : 48000
Precision : 16-bit
Duration : 00:06:14.04 = 17954064 samples ~ 28053.2 CDDA sectors
File Size : 15.2M
Bit Rate : 324k
Sample Encoding: MPEG audio (layer I, II or III)
Comments :
Title= Eastern Barbarian Cult
Artist=Czarnobog
Album=Eastern Barbarian Cult
Tracknumber=06/08
Year=2017
Genre=Black Metal



Register


Вернуться к началу страницы
  Insert nick Quick quote
+Цитировать сообщение
post Sep 17 2017, 13:48:13
Post #2

\m/
Group Icon
Group: S-moderation team
Posts: 7,338
Releases: 19
From: Петропавловск-Камчатский
On Forums: 8 years 8 months
Thanks: 6487 time(s)
Russian Federation


По превью ваще круто! (IMG:style_emoticons/default/true_black.gif)
Вернуться к началу страницы
  Insert nick Quick quote
+Цитировать сообщение

ОтветитьСоздать новую тему
1 User(s) are reading this topic (1 Guests and 0 Anonymous Users)
0 Members:

 



- Lo-Fi Version Support form
Copyrights and abuse reports form
Time is now: 18th February 2018 - 09:53:49