Welcome Guest ( Log In | Register )

> И неформату есть предел.

Рэп/хип-хоп/шансон/поп удаляются. Для них есть свои порталы.

> Stone Cream - Slaves Of Doom (2017), Stoner Rock
post Sep 12 2017, 23:13:10
Post #1

Попсовик от брутала
**************
Group: Металариец
Posts: 5,596
Releases: 51
From: Минск
On Forums: 9 years 2 months
Thanks: 4443 time(s)
Belarus


(IMG:http://metalarea.org/images/audiocovers/2017_Sep/acov_tid294518_thumb.jpg)

*Artist: Stone Cream
*Album: Slaves Of Doom
*Year: 2017
*Genre: Stoner Rock
*Country: Greece (IMG:http://metalarea.org/forum/style_images/flags/Greece.png)
*Format: mp3@CBR320kbps
*Size: 89MB

Tracklist:
1. Broken Bone 04:25
2. Two Coins 04:43
3. Montezuma's Blues 04:20
4. Dead Man 04:06
5. Truck 04:02
6. Piece of S 04:01
7. Homeless 03:49
8. Old Man Talkin' 04:16
9. Law 04:47
******************************
Total playing time: 38:29

Extended info


Technical info
(IMG:http://metalarea.org/images/spectrogram/2017_Sep/88161b7f4e136890941d30e62007989f.png)
Input File: 01 - Broken bone.mp3
Channels : 2
Sample Rate : 44100
Precision : 16-bit
Duration : 00:04:25.72 = 11718208 samples = 19928.9 CDDA sectors
File Size : 10.9M
Bit Rate : 328k
Sample Encoding: MPEG audio (layer I, II or III)
Comments :
Title=Broken bone
Artist=Stone Cream
Album=Slaves of Doom
Tracknumber=01
Year=2017
Genre=Rock



Register


Thanks:
Вернуться к началу страницы
  Insert nick Quick quote
+Цитировать сообщение
 
Создать новую тему
Replies (1 - 3)
post Sep 13 2017, 22:07:59
Post #2

Попсовик от брутала
**************
Group: Металариец
Posts: 5,596
Releases: 51
From: Минск
On Forums: 9 years 2 months
Thanks: 4443 time(s)
Belarus


Однообразный темп и вокалист иногда раздражает гнусавостью, но риффы очень уж жирны. На архивах значится как стоунер/дум/рок, но нифига.


Thanks:
(1) gena,
Вернуться к началу страницы
  Insert nick Quick quote
+Цитировать сообщение
post Sep 13 2017, 22:55:20
Post #3

Шесть Литров
******
Group: Металариец
Posts: 570
Releases: 0
On Forums: 10 years 4 months
Thanks: 174 time(s)
Belarus


ЦИТАТА(Tular @ Sep 13 2017, 23:07:59) *
Однообразный темп и вокалист иногда раздражает гнусавостью, но риффы очень уж жирны. На архивах значится как стоунер/дум/рок, но нифига.

по превью все так, хоть дум по нынешней моде присутствует)), но скачать с телефона не получится (
Вернуться к началу страницы
  Insert nick Quick quote
+Цитировать сообщение
post Sep 14 2017, 18:36:26
Post #4

Четыре Литра
****
Group: Металариец
Posts: 354
Releases: 0
From: Харьков
On Forums: 8 years 4 months
Thanks: 93 time(s)
Ukraine


Два коммента - это уже много для этого раздела. Наверное, реально крутой стонер (IMG:style_emoticons/default/1488.gif)
Вернуться к началу страницы
  Insert nick Quick quote
+Цитировать сообщение

ОтветитьСоздать новую тему
1 User(s) are reading this topic (1 Guests and 0 Anonymous Users)
0 Members:

 



- Lo-Fi Version Support form
Copyrights and abuse reports form
Time is now: 20th February 2018 - 12:56:20