Welcome Guest ( Log In | Register )

 
ОтветитьСоздать новую тему
> Exact Division - Be Fair If You Can (2017), Heavy/Thrash Metal
post Sep 12 2017, 23:21:17
Post #1

Правь статус, ####!111
**************
Group: Металариец
Posts: 12,197
Releases: 8811
From: Г.Харьков
On Forums: 5 years 9 months
Thanks: 141081 time(s)
Unknown


(IMG:https://metalarea.org/images/audiocovers/2017_Sep/acov_tid294519_thumb.jpg)

*Artist: Exact Division
*Album: Be Fair If You Can
*Year: 2017
*Genre: Heavy/Thrash Metal
*Country: Ukraine (IMG:https://metalarea.org/forum/style_images/flags/Ukraine.png)
*Format: mp3@CBR320kbps
*Size: 91MB

Tracklist:
01. Taking the Black
02. Live Online
03. The Deep
04. War
05. Dead Soldier
06. Gold
07. Dirt Jumper
08. On Last Night
09. The Erlking
10. Legend
11. Crusade
******************************
Total playing time: 43:12


Preview 2

Extended info


Technical info
(IMG:https://metalarea.org/images/spectrogram/2017_Sep/154f9f99bf07dc2b51bf544148934eff.png)
Input File: 02. Live Online.mp3
Channels : 2
Sample Rate : 44100
Precision : 16-bit
Duration : 00:03:47.03 = 10011803 samples = 17026.9 CDDA sectors
File Size : 9.17M
Bit Rate : 323k
Sample Encoding: MPEG audio (layer I, II or III)
Comments :
Title=Live Online
Artist=Exact Division
Album=Be Fair If You Can
Tracknumber=2
Genre=Метал
Discnumber=1



Register


Вернуться к началу страницы
  Insert nick Quick quote
+Цитировать сообщение

ОтветитьСоздать новую тему
1 User(s) are reading this topic (1 Guests and 0 Anonymous Users)
0 Members:

 



- Lo-Fi Version Support form
Copyrights and abuse reports form
Time is now: 20th February 2018 - 22:35:56