Welcome Guest ( Log In | Register )

> Gangrena - Ravenous Contagion [compilation] (2017), Brutal Death Metal (D16)
post Sep 12 2017, 23:29:35
Post #1

Правь статус, ####!111
**************
Group: Металариец
Posts: 12,202
Releases: 8814
From: Г.Харьков
On Forums: 5 years 9 months
Thanks: 141122 time(s)
Unknown


(IMG:https://metalarea.org/images/audiocovers/2017_Sep/acov_tid294520_thumb.jpg)

*Artist: Gangrena
*Album: Ravenous Contagion [compilation]
*Year: 2017
*Genre: Brutal Death Metal
*Country: Mexico (IMG:https://metalarea.org/forum/style_images/flags/Mexico.png)
*Format: mp3@CBR320kbps
*Size: 85MB

Tracklist:
01. Extinction of Grotesque Humanity
02. The Zombie Survival Society
03. Unappeasbale Hunger for Living Flesh
04. No Salvation
05. Mortuary Horror
06. Zombie Grinder Machine
07. Fleshwarper Marionette
08. Cult of the Hungry Assassin
09. Outro
10. Consequence
11. Meet the Infection
12. The Zombie Chronicles
13. Let the Infection Begin
14. Human Flesh Eater
15. Rotten Corpses Dementia
16. Time to Die
17. Eat Flesh from the Human Cattle
18. Zombie Apocalypse
19. Outro Number Two
******************************
Total playing time: 40:13



Extended info


Technical info
(IMG:https://metalarea.org/images/spectrogram/2017_Sep/d8b6c9bd84599b4c6e6ee7fe1046bb7e.png)
Input File: 04. No Salvation.mp3
Channels : 2
Sample Rate : 44100
Precision : 16-bit
Duration : 00:02:32.36 = 6719076 samples = 11427 CDDA sectors
File Size : 6.20M
Bit Rate : 325k
Sample Encoding: MPEG audio (layer I, II or III)
Comments :
Title=No Salvation
Artist=Gangrena
Album=Ravenous Contagion
Tracknumber=4
Genre=Метал
Discnumber=1



Register


Вернуться к началу страницы
  Insert nick Quick quote
+Цитировать сообщение
 
Создать новую тему
Replies (1 - 1)
post Sep 13 2017, 07:00:21
Post #2

Аннигилятор пивА
Group Icon
Group: V.I.P
Posts: 45,751
Releases: 13654
From: Koenigsberg - TILZIT
On Forums: 11 years 8 months
Thanks: 302238 time(s)
Russian Federation


Это просто издание двух предыдущих альбома в одном (IMG:style_emoticons/default/bye.gif) ну и это грайндкор
Ravenous Contagion combines their previous releases into one complete work.
Вернуться к началу страницы
  Insert nick Quick quote
+Цитировать сообщение

ОтветитьСоздать новую тему
1 User(s) are reading this topic (1 Guests and 0 Anonymous Users)
0 Members:

 



- Lo-Fi Version Support form
Copyrights and abuse reports form
Time is now: 21st February 2018 - 20:01:26