Welcome Guest ( Log In | Register )

> Astaroth Incarnate - Omnipotence - The Infinite Darkness [ep] (2017), Melodic Black/Death Metal
post Sep 13 2017, 04:14:00
Post #1

Правь статус, ####!111
**************
Group: Металариец
Posts: 12,202
Releases: 8814
From: Г.Харьков
On Forums: 5 years 9 months
Thanks: 141122 time(s)
Unknown


(IMG:https://metalarea.org/images/audiocovers/2017_Sep/acov_tid294523_thumb.jpg)

*Artist: Astaroth Incarnate
*Album: Omnipotence - The Infinite Darkness [ep]
*Year: 2017
*Genre: Melodic Black/Death Metal
*Country: Canada (IMG:https://metalarea.org/forum/style_images/flags/Canada.png)
*Format: mp3@CBR320kbps
*Size: 74MB

Tracklist:
1. Obscurity 03:22
2. Curse of the Black Plague 07:32
3. Unfleshed 06:02
4. Sanctum of Torment 09:30
5. Re-Creation 05:43
******************************
Total playing time: 32:09




Extended info


Technical info
(IMG:https://metalarea.org/images/spectrogram/2017_Sep/68743696a8f00a8348a6ad50ff92e427.png)
Input File: 03. Unfleshed.mp3
Channels : 2
Sample Rate : 44100
Precision : 16-bit
Duration : 00:06:03.01 = 16008653 samples = 27225.6 CDDA sectors
File Size : 14.7M
Bit Rate : 323k
Sample Encoding: MPEG audio (layer I, II or III)
Comments :
Title=Unfleshed
Artist=Astaroth Incarnate
Album=Omnipotence (The Infinite Darkness)
Tracknumber=3/5
Year=2017



Register


Вернуться к началу страницы
  Insert nick Quick quote
+Цитировать сообщение
 
Создать новую тему
Replies (1 - 1)
post Sep 13 2017, 13:26:05
Post #2

Правь статус, ####!111
**************
Group: Металариец
Posts: 12,202
Releases: 8814
From: Г.Харьков
On Forums: 5 years 9 months
Thanks: 141122 time(s)
Unknown


Register


Thanks:
(1) rom666,
Вернуться к началу страницы
  Insert nick Quick quote
+Цитировать сообщение

ОтветитьСоздать новую тему
1 User(s) are reading this topic (1 Guests and 0 Anonymous Users)
0 Members:

 



- Lo-Fi Version Support form
Copyrights and abuse reports form
Time is now: 21st February 2018 - 20:00:04