Welcome Guest ( Log In | Register )

 
ОтветитьСоздать новую тему
> Mortal Ashes - An Abhorrence (2017), Technical Death Metal
post Sep 13 2017, 07:38:13
Post #1

Аннигилятор пивА
Group Icon
Group: V.I.P
Posts: 45,697
Releases: 13644
From: Koenigsberg - TILZIT
On Forums: 11 years 8 months
Thanks: 301948 time(s)
Russian Federation


(IMG:https://metalarea.org/images/audiocovers/2017_Sep/acov_tid294528_thumb.jpg)

*Artist: Mortal Ashes
*Album: An Abhorrence
*Year: 2017
*Genre: Technical Death Metal
*Country: United States (IMG:https://metalarea.org/forum/style_images/flags/United%20States.png)
*Format: mp3@CBR320kbps
*Size: 101MB

Tracklist:
1. Chrysalis 01:17
2. Xenomorphic Mutation 06:25
3. Decapitated By Dog 02:56
4. Pathogen 05:32
5. Ocular Soup 03:55
6. Red Shift 07:22
7. Teuthida 05:25
8. Digested Flesh 04:49
9. Skullfucked By The Herpectic Beast 05:02
******************************
Total playing time: 42:43




Extended info
Trevor Bohlin - Vocals
Joshua Moore - Guitar
Brandon Hedin - Drums
Eric Playstead - Bass


Technical info
(IMG:https://metalarea.org/images/spectrogram/2017_Sep/1172325eba60b94c490cb6f6949feb47.png)
Input File: 03 - Decapitated By Dog.mp3
Channels : 2
Sample Rate : 44100
Precision : 16-bit
Duration : 00:02:56.32 = 7775536 samples = 13223.7 CDDA sectors
File Size : 7.20M
Bit Rate : 327k
Sample Encoding: MPEG audio (layer I, II or III)
Comments :
Title=Decapitated By Dog
Artist=Mortal Ashes
Album=An Abhorrence
Tracknumber=3
Year=2017



Register


Вернуться к началу страницы
  Insert nick Quick quote
+Цитировать сообщение
post Sep 13 2017, 07:51:29
Post #2

Аннигилятор пивА
Group Icon
Group: V.I.P
Posts: 45,697
Releases: 13644
From: Koenigsberg - TILZIT
On Forums: 11 years 8 months
Thanks: 301948 time(s)
Russian Federation


Прогрессив или мелодик можно добавить по желанию, имеются некоторые вкрапления фьюжена... но голый местами прибруталенный тех дэт преобладает
mirror
Register


Вернуться к началу страницы
  Insert nick Quick quote
+Цитировать сообщение
post Sep 19 2017, 09:53:03
Post #3

Schuldinerist
**************
Group: Металариец
Posts: 9,468
Releases: 33
From:
On Forums: 10 years 10 months
Thanks: 5596 time(s)
Russian Federation


Басуха придает нехилой такой объемности и без того добротному материалу, гроул опять же зачетный.
Мне понравился сей
ЦИТАТА
прибруталенный тех дэт
, особенно при прослушивании через колонки.
Не нужно добавлять больше никаких тегов.
9/10


Thanks:
Вернуться к началу страницы
  Insert nick Quick quote
+Цитировать сообщение
post Oct 26 2017, 20:21:12
Post #4

И Ван Дамм По Делам Вашим!
**************
Group: Металариец
Posts: 15,259
Releases: 27
On Forums: 9 years 7 months
Thanks: 8066 time(s)
Honduras


ЦИТАТА(Язва @ Sep 19 2017, 11:53:03) *
Не нужно добавлять больше никаких тегов.
9/10

+1 Отличный альбом.Барабаны так естественно звучат , аж не привычно как то.
Вернуться к началу страницы
  Insert nick Quick quote
+Цитировать сообщение

ОтветитьСоздать новую тему
1 User(s) are reading this topic (1 Guests and 0 Anonymous Users)
0 Members:

 



- Lo-Fi Version Support form
Copyrights and abuse reports form
Time is now: 18th February 2018 - 09:53:14