Welcome Guest ( Log In | Register )

 
ОтветитьСоздать новую тему
> Electric Wizard - Legalise Drugs And Murder [ep] (2012), Doom/Stoner Metal
post Sep 13 2017, 07:58:30
Post #1

...
Group Icon
Group: S-moderation team
Posts: 5,386
Releases: 1140
On Forums: 6 years 11 months
Thanks: 26740 time(s)
Unknown


(IMG:https://metalarea.org/images/audiocovers/2017_Sep/acov_tid294529_thumb.jpg)

*Artist: Electric Wizard
*Album: Legalise Drugs And Murder [ep]
*Year: 2012
*Genre: Doom/Stoner Metal
*Country: United Kingdom (IMG:https://metalarea.org/forum/style_images/flags/United%20Kingdom.png)
*Format: mp3@CBR320kbps
*Size: 83MB

Tracklist:
1. Legalise Drugs & Murder 06:20
2. Satyr IX (demo 2012 remastered) 07:13
3. Murder & Madness 05:24
4. Patterns of Evil (remix 2012) 06:39
5. Lucifer (We've Gone Too Far) 06:21
6. Our Witchcult Grows... 02:39
******************************
Total playing time: 34:36

Technical info
(IMG:https://metalarea.org/images/spectrogram/2017_Sep/c5e3ef86ab78d1920f55de9740d7897e.png)
Input File: 04 Patterns of Evil [Remix].mp3
Channels : 2
Sample Rate : 44100
Precision : 16-bit
Duration : 00:06:34.00 = 17375400 samples = 29550 CDDA sectors
File Size : 16.6M
Bit Rate : 337k
Sample Encoding: MPEG audio (layer I, II or III)
Comments :
Title=Patterns of Evil [Remix]
Artist=Electric Wizard
Album=Legalise Drugs and Murder [EP]
Tracknumber=4
Year=2012
Genre=Doom Metal



Register


Вернуться к началу страницы
  Insert nick Quick quote
+Цитировать сообщение

ОтветитьСоздать новую тему
1 User(s) are reading this topic (1 Guests and 0 Anonymous Users)
0 Members:

 



- Lo-Fi Version Support form
Copyrights and abuse reports form
Time is now: 21st February 2018 - 20:02:29