Welcome Guest ( Log In | Register )

> Strzyga - Świt Bogów (2017), Thrash Metal
post Sep 13 2017, 08:18:04
Post #1

Аннигилятор пивА
Group Icon
Group: V.I.P
Posts: 45,729
Releases: 13651
From: Koenigsberg - TILZIT
On Forums: 11 years 8 months
Thanks: 302097 time(s)
Russian Federation


(IMG:https://metalarea.org/images/audiocovers/2017_Sep/acov_tid294530_thumb.jpg)

*Artist: Strzyga
*Album: Świt Bogów
*Year: 2017
*Genre: Thrash Metal
*Country: Poland (IMG:https://metalarea.org/forum/style_images/flags/Poland.png)
*Format: mp3@CBR320kbps
*Size: 76MB

Tracklist:
1. Upadek Arkony
2. Gniew Arkony
3. Strzyga
4. Wiła
5. Vinda Snekka
6. Starsza Krew
7. Kawaleria Szkarłatnego Księżyca
8. Kolovrat
******************************
Total playing time: 34:52

Extended info
Jakub Konieczny - Bass
Adrian Stempak - Drums
Paweł Kosmala - Guitars (lead)
Maciej Czyż - Guitars (rhythm)
Mateusz Kujawa - Vocals



Technical info
(IMG:https://metalarea.org/images/spectrogram/2017_Sep/6080ee365e2b1067ce0e37029de510fa.png)
Input File: 01. Upadek Arkony.mp3
Channels : 2
Sample Rate : 44100
Precision : 16-bit
Duration : 00:03:04.17 = 8121721 samples = 13812.5 CDDA sectors
File Size : 7.38M
Bit Rate : 320k
Sample Encoding: MPEG audio (layer I, II or III)
Comments :
Title=Upadek Arkony
Artist=Strzyga
Album=Ељwit BogГіw
Tracknumber=01
Year=2017
Genre=Thrash Metal



Register


Вернуться к началу страницы
  Insert nick Quick quote
+Цитировать сообщение
 
Создать новую тему
Replies (1 - 5)
post Sep 13 2017, 16:48:31
Post #2

Аннигилятор пивА
Group Icon
Group: V.I.P
Posts: 45,729
Releases: 13651
From: Koenigsberg - TILZIT
On Forums: 11 years 8 months
Thanks: 302097 time(s)
Russian Federation


mirror
Register




Вернуться к началу страницы
  Insert nick Quick quote
+Цитировать сообщение
post Sep 13 2017, 17:32:51
Post #3

Аннигилятор пивА
Group Icon
Group: V.I.P
Posts: 45,729
Releases: 13651
From: Koenigsberg - TILZIT
On Forums: 11 years 8 months
Thanks: 302097 time(s)
Russian Federation


(IMG:style_emoticons/default/bye.gif) тут смесь пагана и трэша, хватит самаритянина слушать, послушайте альбом, он его не слышал явно
Вернуться к началу страницы
  Insert nick Quick quote
+Цитировать сообщение
post Sep 13 2017, 17:34:43
Post #4

...
Group Icon
Group: S-moderation team
Posts: 5,355
Releases: 1129
On Forums: 6 years 11 months
Thanks: 26564 time(s)
Unknown


Edited it from "pagan thrash metal" to "thrash metal" - there is no need to argue (IMG:style_emoticons/default/21.gif)
Вернуться к началу страницы
  Insert nick Quick quote
+Цитировать сообщение
post Sep 13 2017, 17:37:00
Post #5

Аннигилятор пивА
Group Icon
Group: V.I.P
Posts: 45,729
Releases: 13651
From: Koenigsberg - TILZIT
On Forums: 11 years 8 months
Thanks: 302097 time(s)
Russian Federation


ЦИТАТА(Borderline1991 @ Sep 13 2017, 16:34:43) *
Edited it from "pagan thrash metal" to "thrash metal" - there is no need to argue (IMG:style_emoticons/default/21.gif)

(IMG:style_emoticons/default/1488.gif) я спорить не буду, можно просто послушать, тут не чистый трэш хотя он и преобладает, тут и характерный гроул, и бластбиты, и эпик-фолковые прибамбасы
Вернуться к началу страницы
  Insert nick Quick quote
+Цитировать сообщение
post Sep 13 2017, 17:42:34
Post #6

...
Group Icon
Group: S-moderation team
Posts: 5,355
Releases: 1129
On Forums: 6 years 11 months
Thanks: 26564 time(s)
Unknown


QUOTE(aesteticvice @ Sep 13 2017, 18:37:00) *
(IMG:style_emoticons/default/1488.gif) я спорить не буду, можно просто послушать, тут не чистый трэш хотя он и преобладает, тут и характерный гроул, и бластбиты, и эпик-фолковые прибамбасы
I'm sure that is correct, I just wish you two would someday stop competing so much - no need for it as you're both amazing and extremely useful for site. Sorry for offtopic.


Thanks:
Вернуться к началу страницы
  Insert nick Quick quote
+Цитировать сообщение

ОтветитьСоздать новую тему
1 User(s) are reading this topic (1 Guests and 0 Anonymous Users)
0 Members:

 



- Lo-Fi Version Support form
Copyrights and abuse reports form
Time is now: 19th February 2018 - 16:53:02