Welcome Guest ( Log In | Register )

> Anuuruk - Unspeakable Uncreation (2017), Old School Death Metal
post Sep 13 2017, 08:19:26
Post #1

Аннигилятор пивА
Group Icon
Group: V.I.P
Posts: 46,815
Releases: 14061
From: Koenigsberg - TILZIT
On Forums: 12 years 3 weeks
Thanks: 311984 time(s)
Russian Federation


(IMG:https://metalarea.org/images/audiocovers/2017_Sep/acov_tid294531_thumb.jpg)

*Artist: Anuuruk
*Album: Unspeakable Uncreation
*Year: 2017
*Genre: Old School Death Metal
*Country: Chile (IMG:https://metalarea.org/forum/style_images/flags/Chile.png)
*Format: mp3@CBR320kbps
*Size: 96MB

Tracklist:
01. Phanteon from Kir in Gir 06:19
02. Apocryphal Revelation Under the Human Sickness 04:33
03. Irkalla 03:40
04. Unspeakable Uncreation 04:11
05. Conceived Through the Promiscuous Womb 03:21
06. Trascendental Source Made Blood 03:14
07. Profanum Litany to the Devourer of Flesh 04:46
08. The Myth Unravels 02:42
09. Nigrum Sumus Legionum 03:55
10. Incorporeal Continuous Sublime 04:31
******************************
Total playing time: 41:12



Extended info
Maldoror - Drums (Sulthaur, ex-Hominis Nocturna)
Amon - Guitars (Xul ov Kvlten)
Hiberg Urthoris - Guitars, Bass (Novus Ordo, Sulthaur, Wildes Heer, ex-Hominis Nocturna)
Xul - Vocals (Xul ov Kvlten)


Technical info
(IMG:https://metalarea.org/images/spectrogram/2017_Sep/ac6eb6468aff076a2d5470ad9711e750.png)
Input File: 03.Irkalla.mp3
Channels : 2
Sample Rate : 44100
Precision : 16-bit
Duration : 00:03:40.16 = 9709144 samples = 16512.1 CDDA sectors
File Size : 9.79M
Bit Rate : 356k
Sample Encoding: MPEG audio (layer I, II or III)
Comments :
Title=Irkalla
Artist=Anuuruk
Album=Unspeakable Uncreation
Tracknumber=3
Year=2017
Genre=Death Metal



Register


Go to the top of the page
  Insert nick Quick quote
+Quote Post
 
Start new topic
Replies (1 - 3)
post Sep 13 2017, 16:47:40
Post #2

Аннигилятор пивА
Group Icon
Group: V.I.P
Posts: 46,815
Releases: 14061
From: Koenigsberg - TILZIT
On Forums: 12 years 3 weeks
Thanks: 311984 time(s)
Russian Federation


болотисто-угрюмый, брутально-притехниченный чили-сатаник дэт в направленни иммолейшен-инкантейшен
Chilean Death Metal, with old and dark influences coming from the darkest corners of the mind. Support and total Chaos!

mirror
Register





Go to the top of the page
  Insert nick Quick quote
+Quote Post
post Feb 27 2018, 17:13:40
Post #3

Crush! Kill! Destroy!
**************
Group: Металариец
Posts: 4,444
Releases: 15
From: Kaliningrad
On Forums: 10 years 7 months
Thanks: 4142 time(s)
Russian Federation


Все опять строем прошли мимо отличного альбома!
Go to the top of the page
  Insert nick Quick quote
+Quote Post
post Feb 27 2018, 17:20:23
Post #4

Правь статус, ####!111
**************
Group: Металариец
Posts: 32,134
Releases: 486
On Forums: 9 years 2 weeks
Thanks: 24637 time(s)
Russian Federation


ЦИТАТА(Dmitry1977 @ Feb 27 2018, 20:13:40) *
Все опять строем прошли мимо отличного альбома!


Ну почему же, аж 16 спасибок наворотили (IMG:style_emoticons/default/1488.gif)
Go to the top of the page
  Insert nick Quick quote
+Quote Post

Reply to this topicStart new topic
1 User(s) are reading this topic (1 Guests and 0 Anonymous Users)
0 Members:

 



- Lo-Fi Version Support form
Copyrights and abuse reports form
Time is now: 20th June 2018 - 17:59:40